<svg xmlns="http://www.w3.org/2000/svg">
<defs>
<font
   horiz-adv-x="1000"
   id="font50159"
   horiz-origin-x="0"
   horiz-origin-y="0"
   vert-origin-x="45"
   vert-origin-y="90"
   vert-adv-y="90">
<!-- Copyright 2002 Adobe Systems Incorporated. All Rights Reserved. Myriad is a registered trademark of Adobe Systems Incorporated. -->
<font-face
   font-family="MyriadPro-BlackSemiCnIt"
   units-per-em="1000"
   underline-position="-100"
   underline-thickness="50"
   id="font-face48739" />
<missing-glyph
   horiz-adv-x="500"
   d="M0,0l500,0l0,700l-500,0M250,395l-170,255l340,0M280,350l170,255l0,-510M80,50l170,255l170,-255M50,605l170,-255l-170,-255z"
   id="missing-glyph48741" />
<glyph
   unicode="A"
   horiz-adv-x="584"
   d="M358,151l4,-151l169,0l-51,674l-208,0l-305,-674l171,0l62,151M244,273l50,128C310,439 330,503 347,547l2,0C350,503 351,440 352,401l3,-128z"
   id="glyph48743" />
<glyph
   unicode="Æ"
   horiz-adv-x="786"
   d="M118,0l81,163l169,0l-12,-163l369,0l25,140l-227,0l10,130l198,0l24,138l-216,0l11,126l227,0l25,140l-481,0l-374,-674M269,297l73,140C355,464 377,512 396,553l3,0C395,517 392,481 390,449l-15,-152z"
   id="glyph48745" />
<glyph
   unicode="Ǽ"
   horiz-adv-x="786"
   d="M118,0l81,163l169,0l-12,-163l369,0l25,140l-227,0l10,130l198,0l24,138l-216,0l11,126l227,0l25,140l-481,0l-374,-674M269,297l73,140C355,464 377,512 396,553l3,0C395,517 392,481 390,449l-15,-152M526,840l-99,-130l131,0l140,130z"
   id="glyph48747" />
<glyph
   unicode="Á"
   horiz-adv-x="584"
   d="M358,151l4,-151l169,0l-50,674l-209,0l-305,-674l171,0l62,151M244,273l50,128C310,439 330,503 347,547l2,0C351,503 351,440 352,401l3,-128M403,840l-99,-130l131,0l140,130z"
   id="glyph48749" />
<glyph
   unicode="Ă"
   horiz-adv-x="584"
   d="M358,151l4,-151l168,0l-50,674l-208,0l-305,-674l171,0l62,151M244,273l50,128C309,439 330,503 346,547l2,0C350,503 350,440 351,401l4,-128M257,838C248,766 286,711 383,711C485,711 531,766 543,838l-90,0C448,814 431,791 392,791C357,791 343,815 344,838z"
   id="glyph48751" />
<glyph
   unicode="Â"
   horiz-adv-x="584"
   d="M358,151l4,-151l169,0l-51,674l-208,0l-305,-674l171,0l62,151M244,273l50,128C310,439 330,503 347,547l2,0C350,503 351,440 352,401l3,-128M346,840l-123,-130l122,0l50,56l2,0l33,-56l111,0l-76,130z"
   id="glyph48753" />
<glyph
   unicode=""
   horiz-adv-x="400"
   d="M305,840l-99,-130l131,0l140,130z"
   id="glyph48755" />
<glyph
   unicode="Ä"
   horiz-adv-x="584"
   d="M358,151l4,-151l168,0l-50,674l-208,0l-305,-674l171,0l62,151M244,273l50,128C310,439 330,503 347,547l1,0C350,503 350,440 352,401l3,-128M278,708C318,708 354,740 354,786C354,826 325,857 284,857C243,857 207,825 207,778C207,736 241,708 277,708M485,708C525,708 561,740 561,786C561,826 532,857 491,857C450,857 414,825 414,778C414,736 448,708 484,708z"
   id="glyph48757" />
<glyph
   unicode="À"
   horiz-adv-x="584"
   d="M358,151l4,-151l169,0l-51,674l-208,0l-305,-674l171,0l62,151M244,273l50,128C310,439 330,503 347,547l2,0C350,503 351,440 352,401l3,-128M206,840l116,-128l129,0l-75,128z"
   id="glyph48759" />
<glyph
   unicode="Α"
   horiz-adv-x="584"
   d="M358,151l4,-151l169,0l-51,674l-208,0l-305,-674l171,0l62,151M244,273l50,128C310,439 330,503 347,547l2,0C350,503 351,440 352,401l3,-128z"
   id="glyph48761" />
<glyph
   unicode="Ά"
   horiz-adv-x="584"
   d="M358,151l4,-151l169,0l-51,674l-208,0l-305,-674l171,0l62,151M244,273l50,128C310,439 330,503 347,547l2,0C350,503 351,440 352,401l3,-128M67,674l-30,-180l90,0l69,180z"
   id="glyph48763" />
<glyph
   unicode="Ā"
   horiz-adv-x="584"
   d="M358,151l4,-151l169,0l-51,674l-208,0l-305,-674l171,0l62,151M244,273l50,128C310,439 330,503 347,547l2,0C350,503 351,440 352,401l3,-128M275,823l-18,-88l254,0l17,88z"
   id="glyph48765" />
<glyph
   unicode="Ą"
   horiz-adv-x="584"
   d="M480,674l-208,0l-305,-674l171,0l62,151l158,0l4,-150C342,-25 308,-75 308,-125C308,-187 346,-220 412,-220C450,-220 492,-210 523,-185l-12,79C501,-109 483,-114 464,-114C439,-114 424,-100 424,-77C424,-56 437,-26 454,0l77,0M244,273l50,128C310,439 330,503 347,547l2,0C350,503 351,440 352,401l3,-128z"
   id="glyph48767" />
<glyph
   unicode="Å"
   horiz-adv-x="584"
   d="M358,151l4,-151l169,0l-50,674l-209,0l-305,-674l171,0l62,151M244,273l50,128C310,439 330,503 347,547l2,0C351,503 351,440 352,401l3,-128M397,887C322,887 272,844 273,785C275,734 319,698 384,698C458,698 508,737 510,797C510,854 465,887 398,887M393,836C420,836 433,816 433,794C433,769 418,749 389,749C363,749 350,768 350,789C350,814 365,836 392,836z"
   id="glyph48769" />
<glyph
   unicode="Ã"
   horiz-adv-x="584"
   d="M358,151l4,-151l169,0l-51,674l-208,0l-305,-674l171,0l62,151M244,273l50,128C310,439 330,503 347,547l2,0C350,503 351,440 352,401l3,-128M310,712C315,741 327,753 338,753C351,753 361,746 376,736C390,727 410,718 438,718C491,718 529,753 544,848l-77,0C457,814 449,804 434,804C422,804 410,813 396,824C380,833 362,842 334,842C287,842 246,804 231,712z"
   id="glyph48771" />
<glyph
   unicode="B"
   horiz-adv-x="574"
   d="M15,8C49,1 104,-4 184,-4C300,-4 384,14 441,53C492,88 530,140 530,209C530,276 496,332 431,354l0,3C501,378 561,433 561,517C561,574 529,618 484,642C437,671 382,678 314,678C249,678 186,672 139,662M278,551C288,553 304,554 323,554C368,554 396,530 396,493C396,443 355,412 285,412l-33,0M227,293l30,0C317,293 360,274 360,216C360,155 304,123 238,123C221,123 208,123 195,124z"
   id="glyph48773" />
<glyph
   unicode="Β"
   horiz-adv-x="574"
   d="M15,8C49,1 104,-4 184,-4C300,-4 384,14 441,53C492,88 530,140 530,209C530,276 496,332 431,354l0,3C501,378 561,433 561,517C561,574 529,618 484,642C437,671 382,678 314,678C249,678 186,672 139,662M278,551C288,553 304,554 323,554C368,554 396,530 396,493C396,443 355,412 285,412l-33,0M227,293l30,0C317,293 360,274 360,216C360,155 304,123 238,123C221,123 208,123 195,124z"
   id="glyph48775" />
<glyph
   unicode="C"
   horiz-adv-x="536"
   d="M471,150C444,139 405,133 366,133C275,133 224,190 224,284C224,379 258,451 307,495C339,525 384,541 430,541C479,541 514,531 531,525l43,135C557,669 507,683 446,683C358,683 279,662 212,613C116,546 47,429 47,262C47,117 141,-9 324,-9C395,-9 446,1 477,14z"
   id="glyph48777" />
<glyph
   unicode="Ć"
   horiz-adv-x="536"
   d="M471,150C444,139 405,133 366,133C275,133 224,190 224,284C224,379 258,451 307,495C339,525 384,541 430,541C479,541 514,531 531,525l43,135C557,669 507,683 446,683C358,683 279,662 212,613C116,546 47,429 47,262C47,117 141,-9 324,-9C395,-9 446,1 477,14M419,843l-99,-130l131,0l140,130z"
   id="glyph48779" />
<glyph
   unicode=""
   horiz-adv-x="400"
   d="M350,710l123,130l-122,0l-50,-59l-2,0l-32,59l-112,0l76,-130z"
   id="glyph48781" />
<glyph
   unicode="Č"
   horiz-adv-x="536"
   d="M471,150C444,139 405,133 366,133C275,133 224,190 224,284C224,379 258,451 307,495C339,525 384,541 430,541C479,541 514,531 531,525l43,135C557,669 507,683 446,683C358,683 279,662 212,613C116,546 47,429 47,262C47,117 141,-9 324,-9C395,-9 446,1 477,14M454,713l124,130l-123,0l-50,-59l-2,0l-32,59l-111,0l76,-130z"
   id="glyph48783" />
<glyph
   unicode="Ç"
   horiz-adv-x="536"
   d="M471,152C443,141 405,133 365,133C275,133 224,190 224,284C224,379 258,451 306,495C339,525 384,541 430,541C479,541 514,531 530,525l44,135C557,669 507,683 445,683C358,683 279,662 212,613C116,546 47,429 47,262C47,138 114,15 269,-6l-49,-75C275,-85 291,-100 291,-115C291,-134 272,-140 257,-140C240,-140 220,-135 203,-125l-24,-59C196,-196 223,-205 255,-205C309,-205 385,-183 385,-109C385,-73 360,-49 324,-41l23,33C398,-8 449,5 477,18z"
   id="glyph48785" />
<glyph
   unicode="Ĉ"
   horiz-adv-x="536"
   d="M471,150C444,139 405,133 366,133C275,133 224,190 224,284C224,379 258,451 307,495C339,525 384,541 430,541C479,541 514,531 531,525l43,135C557,669 507,683 446,683C358,683 279,662 212,613C116,546 47,429 47,262C47,117 141,-9 324,-9C395,-9 446,1 477,14M363,843l-124,-130l122,0l50,56l2,0l33,-56l111,0l-76,130z"
   id="glyph48787" />
<glyph
   unicode="Ċ"
   horiz-adv-x="536"
   d="M471,150C444,139 405,133 366,133C275,133 224,190 224,284C224,379 258,451 307,495C340,525 384,541 430,541C479,541 515,531 531,525l43,135C557,669 507,683 446,683C358,683 279,662 212,613C116,546 47,429 47,262C47,117 141,-9 324,-9C395,-9 447,1 477,14M414,711C456,711 493,744 493,791C493,831 463,863 420,863C377,863 340,830 340,783C340,740 375,711 413,711z"
   id="glyph48789" />
<glyph
   unicode="Χ"
   horiz-adv-x="528"
   d="M484,0l-106,340l223,334l-187,0l-54,-108C341,526 327,496 303,447l-2,0C293,489 286,517 277,564l-24,110l-171,0l94,-328l-228,-346l188,0l60,119C220,167 233,196 254,237l2,0C265,195 272,167 281,127l31,-127z"
   id="glyph48791" />
<glyph
   unicode="D"
   horiz-adv-x="637"
   d="M16,10C47,3 116,-4 191,-4C327,-4 414,20 486,76C563,136 628,254 628,401C628,495 598,562 542,611C490,655 416,678 319,678C255,678 194,673 141,663M282,544C291,546 304,547 323,547C408,547 453,491 453,406C453,326 433,263 399,211C365,159 306,130 249,130C227,130 213,131 203,133z"
   id="glyph48793" />
<glyph
   unicode="Ď"
   horiz-adv-x="637"
   d="M16,10C47,3 116,-4 191,-4C327,-4 414,20 486,76C563,136 628,254 628,401C628,495 598,562 542,611C490,655 416,678 319,678C255,678 194,673 141,663M282,544C291,546 304,547 323,547C408,547 453,491 453,406C453,326 433,263 399,211C365,159 306,130 249,130C227,130 213,131 203,133M415,710l123,130l-122,0l-50,-59l-2,0l-32,59l-111,0l76,-130z"
   id="glyph48795" />
<glyph
   unicode="Đ"
   horiz-adv-x="648"
   d="M10,280l68,0l-52,-269C57,4 115,-4 201,-4C337,-4 424,20 496,76C573,136 638,246 638,399C638,494 609,564 552,614C502,658 423,678 325,678C260,678 202,673 151,663l-48,-253l-68,0M365,410l-99,0l26,133C301,546 314,547 336,547C418,547 463,489 463,399C463,329 443,264 409,211C375,159 316,130 259,130C237,130 223,131 213,134l28,146l99,0z"
   id="glyph48797" />
<glyph
   unicode="∆"
   horiz-adv-x="601"
   d="M515,0l16,86l-52,564l-204,0l-267,-566l-16,-84M189,138l87,199C298,388 330,475 345,513l3,0C348,477 354,377 356,329l12,-191z"
   id="glyph48799" />
<glyph
   unicode=""
   horiz-adv-x="400"
   d="M196,708C236,708 272,740 272,786C272,826 243,857 202,857C161,857 125,825 125,778C125,736 159,708 195,708M403,708C443,708 479,740 479,786C479,826 450,857 409,857C368,857 332,825 332,778C332,736 366,708 402,708z"
   id="glyph48801" />
<glyph
   unicode=""
   horiz-adv-x="400"
   d="M118,709C152,709 186,734 186,779C186,816 160,844 124,844C87,844 55,815 55,773C55,730 88,709 117,709M266,850l-74,-140l119,0l111,140M492,709C526,709 559,734 559,779C559,816 533,844 497,844C459,844 428,815 428,773C428,730 461,709 491,709z"
   id="glyph48803" />
<glyph
   unicode=""
   horiz-adv-x="400"
   d="M88,709C121,709 155,734 155,779C155,816 130,844 94,844C57,844 25,815 25,773C25,730 58,709 87,709M163,850l115,-139l109,0l-64,139M465,709C499,709 532,734 532,779C532,816 506,844 470,844C433,844 402,815 402,773C402,730 435,709 464,709z"
   id="glyph48805" />
<glyph
   unicode="E"
   horiz-adv-x="498"
   d="M466,415l-210,0l24,119l219,0l28,140l-385,0l-128,-674l398,0l27,140l-235,0l27,137l208,0z"
   id="glyph48807" />
<glyph
   unicode="É"
   horiz-adv-x="498"
   d="M466,415l-210,0l24,119l219,0l28,140l-385,0l-128,-674l398,0l27,140l-235,0l27,137l208,0M359,840l-99,-130l132,0l139,130z"
   id="glyph48809" />
<glyph
   unicode="Ĕ"
   horiz-adv-x="498"
   d="M465,415l-209,0l24,119l219,0l28,140l-385,0l-128,-674l398,0l27,140l-235,0l27,137l208,0M214,839C205,767 243,712 340,712C442,712 488,767 500,839l-90,0C405,815 388,792 349,792C314,792 300,816 301,839z"
   id="glyph48811" />
<glyph
   unicode="Ě"
   horiz-adv-x="498"
   d="M466,415l-210,0l24,119l219,0l28,140l-385,0l-128,-674l398,0l27,140l-235,0l27,137l208,0M398,710l123,130l-122,0l-50,-59l-2,0l-32,59l-111,0l76,-130z"
   id="glyph48813" />
<glyph
   unicode="Ê"
   horiz-adv-x="498"
   d="M466,415l-210,0l24,119l219,0l28,140l-385,0l-128,-674l398,0l27,140l-235,0l27,137l208,0M307,840l-124,-130l122,0l50,56l2,0l33,-56l111,0l-76,130z"
   id="glyph48815" />
<glyph
   unicode="Ë"
   horiz-adv-x="498"
   d="M466,415l-210,0l24,119l219,0l28,140l-385,0l-128,-674l398,0l27,140l-234,0l26,137l208,0M245,708C285,708 321,740 321,786C321,826 292,857 251,857C210,857 174,825 174,778C174,736 208,708 244,708M452,708C492,708 528,740 528,786C528,826 499,857 458,857C417,857 381,825 381,778C381,736 415,708 451,708z"
   id="glyph48817" />
<glyph
   unicode="Ė"
   horiz-adv-x="498"
   d="M466,415l-210,0l24,119l219,0l28,140l-385,0l-128,-674l398,0l27,140l-235,0l27,137l208,0M346,708C388,708 425,741 425,788C425,828 395,860 352,860C309,860 272,827 272,780C272,737 307,708 345,708z"
   id="glyph48819" />
<glyph
   unicode="È"
   horiz-adv-x="498"
   d="M466,415l-210,0l24,119l219,0l28,140l-385,0l-128,-674l398,0l27,140l-235,0l27,137l208,0M175,840l116,-128l129,0l-75,128z"
   id="glyph48821" />
<glyph
   unicode="Ē"
   horiz-adv-x="498"
   d="M466,415l-210,0l24,119l219,0l28,140l-385,0l-128,-674l398,0l27,140l-235,0l27,137l208,0M232,823l-18,-88l254,0l17,88z"
   id="glyph48823" />
<glyph
   unicode="Ŋ"
   horiz-adv-x="634"
   d="M264,-211C391,-205 498,-145 535,53l118,621l-149,0l-32,-170C452,395 440,299 436,225l-3,0C421,298 404,372 380,464l-56,210l-182,0l-128,-674l148,0l31,165C216,283 233,395 241,462l3,0C259,373 274,315 301,216l62,-223C349,-49 301,-75 244,-82z"
   id="glyph48825" />
<glyph
   unicode="Ę"
   horiz-adv-x="498"
   d="M14,0l275,0C247,-32 211,-82 211,-132C211,-185 246,-220 310,-220C346,-220 390,-210 422,-185l-19,79C394,-109 374,-115 357,-115C341,-115 329,-106 329,-87C329,-64 350,-33 393,0l19,0l27,140l-234,0l26,137l208,0l27,138l-210,0l24,119l219,0l28,140l-385,0z"
   id="glyph48827" />
<glyph
   unicode="Ε"
   horiz-adv-x="498"
   d="M466,415l-210,0l24,119l219,0l28,140l-385,0l-128,-674l398,0l27,140l-235,0l27,137l208,0z"
   id="glyph48829" />
<glyph
   unicode="Έ"
   horiz-adv-x="559"
   d="M527,415l-210,0l24,119l219,0l28,140l-385,0l-128,-674l398,0l27,140l-235,0l27,137l208,0M28,674l-29,-180l90,0l68,180z"
   id="glyph48831" />
<glyph
   unicode="Η"
   horiz-adv-x="637"
   d="M143,674l-128,-674l164,0l51,270l184,0l-50,-270l164,0l128,674l-164,0l-49,-257l-185,0l49,257z"
   id="glyph48833" />
<glyph
   unicode="Ή"
   horiz-adv-x="695"
   d="M201,674l-128,-674l164,0l50,270l185,0l-50,-270l164,0l128,674l-164,0l-49,-257l-185,0l48,257M28,674l-29,-180l90,0l68,180z"
   id="glyph48835" />
<glyph
   unicode="Ð"
   horiz-adv-x="648"
   d="M10,280l68,0l-52,-269C57,4 115,-4 201,-4C337,-4 424,20 496,76C573,136 638,246 638,399C638,494 609,564 552,614C502,658 423,678 325,678C260,678 202,673 151,663l-48,-253l-68,0M365,410l-99,0l26,133C301,546 314,547 336,547C418,547 463,489 463,399C463,329 443,264 409,211C375,159 316,130 259,130C237,130 223,131 213,134l28,146l99,0z"
   id="glyph48837" />
<glyph
   unicode="€"
   horiz-adv-x="527"
   d="M475,145C452,136 410,127 370,127C304,127 267,167 257,228l190,0l16,79l-204,0C261,321 263,335 266,349l205,0l17,79l-194,0C319,481 379,523 448,523C493,523 525,514 542,507l46,127C562,647 518,660 452,660C300,660 172,560 123,428l-66,0l-16,-79l61,0C99,335 96,321 94,307l-61,0l-16,-79l72,0C97,81 184,-10 339,-10C400,-10 455,3 486,18z"
   id="glyph48839" />
<glyph
   unicode="F"
   horiz-adv-x="493"
   d="M14,0l164,0l50,260l204,0l26,138l-205,0l27,136l216,0l28,140l-382,0z"
   id="glyph48841" />
<glyph
   unicode="G"
   horiz-adv-x="632"
   d="M609,393l-234,0l-26,-130l78,0l-23,-124C391,135 377,132 352,132C279,132 224,174 224,270C224,373 264,453 319,497C354,524 402,538 458,538C508,538 557,526 582,515l48,140C604,666 546,681 464,681C353,681 252,647 181,584C98,509 45,398 45,262C45,178 76,105 126,62C177,17 246,-7 335,-7C414,-7 488,11 540,28z"
   id="glyph48843" />
<glyph
   unicode="Γ"
   horiz-adv-x="459"
   d="M143,674l-129,-674l168,0l102,534l223,0l27,140z"
   id="glyph48845" />
<glyph
   unicode="Ğ"
   horiz-adv-x="632"
   d="M609,393l-234,0l-26,-130l78,0l-24,-124C391,135 377,132 352,132C279,132 224,174 224,270C224,373 264,453 319,497C354,524 401,538 458,538C508,538 556,526 581,515l49,140C604,666 545,681 464,681C353,681 253,647 181,584C98,509 45,398 45,262C45,178 76,105 126,62C177,17 246,-7 335,-7C413,-7 487,11 539,28M301,844C292,772 330,717 427,717C529,717 575,772 587,844l-90,0C492,820 475,797 436,797C401,797 387,821 388,844z"
   id="glyph48847" />
<glyph
   unicode="Ĝ"
   horiz-adv-x="632"
   d="M609,393l-234,0l-26,-130l78,0l-23,-124C391,135 377,132 352,132C279,132 224,174 224,270C224,373 264,453 319,497C354,524 402,538 458,538C508,538 557,526 582,515l48,140C604,666 546,681 464,681C353,681 252,647 181,584C98,509 45,398 45,262C45,178 76,105 126,62C177,17 246,-7 335,-7C414,-7 488,11 540,28M398,840l-123,-130l122,0l50,56l2,0l32,-56l112,0l-77,130z"
   id="glyph48849" />
<glyph
   unicode="Ģ"
   horiz-adv-x="632"
   d="M610,393l-235,0l-26,-130l78,0l-23,-124C391,135 377,132 352,132C279,132 224,174 224,270C224,373 264,453 320,497C355,524 402,538 458,538C509,538 557,526 582,515l48,140C605,666 546,681 465,681C353,681 253,647 181,584C98,509 45,398 45,262C45,178 76,105 126,62C177,17 247,-7 336,-7C414,-7 488,11 540,28M217,-242C293,-239 390,-198 390,-104C390,-75 376,-51 365,-41l-117,-19C258,-71 267,-86 267,-106C267,-142 230,-164 200,-170z"
   id="glyph48851" />
<glyph
   unicode="Ġ"
   horiz-adv-x="632"
   d="M609,393l-234,0l-26,-130l78,0l-23,-124C391,135 377,132 352,132C279,132 224,174 224,270C224,373 264,453 319,497C354,524 402,538 458,538C508,538 556,526 581,515l49,140C604,666 546,681 464,681C353,681 252,647 181,584C98,509 45,398 45,262C45,178 76,105 126,62C177,17 246,-7 335,-7C414,-7 488,11 540,28M444,708C486,708 523,741 523,788C523,828 493,860 450,860C407,860 370,827 370,780C370,737 405,708 443,708z"
   id="glyph48853" />
<glyph
   unicode=""
   horiz-adv-x="400"
   d="M131,840l116,-128l129,0l-75,128z"
   id="glyph48855" />
<glyph
   unicode="H"
   horiz-adv-x="637"
   d="M143,674l-128,-674l164,0l51,270l184,0l-50,-270l164,0l128,674l-164,0l-49,-257l-185,0l49,257z"
   id="glyph48857" />
<glyph
   unicode="Ħ"
   horiz-adv-x="637"
   d="M452,467l-15,-76l-185,0l14,76M49,570l-21,-103l75,0l-89,-467l164,0l46,244l185,0l-46,-244l164,0l89,467l65,0l21,103l-67,0l20,104l-164,0l-20,-104l-185,0l20,104l-164,0l-20,-104z"
   id="glyph48859" />
<glyph
   unicode="Ĥ"
   horiz-adv-x="637"
   d="M143,674l-128,-674l164,0l51,270l184,0l-50,-270l164,0l128,674l-164,0l-49,-257l-185,0l49,257M371,840l-124,-130l122,0l50,56l2,0l33,-56l111,0l-76,130z"
   id="glyph48861" />
<glyph
   unicode=""
   horiz-adv-x="400"
   d="M224,841l-82,-124l111,0l119,124M410,841l-82,-124l112,0l118,124z"
   id="glyph48863" />
<glyph
   unicode="I"
   horiz-adv-x="284"
   d="M139,674l-128,-674l164,0l128,674z"
   id="glyph48865" />
<glyph
   unicode="Ĳ"
   horiz-adv-x="664"
   d="M139,674l-128,-674l164,0l128,674M444,243C428,162 394,135 343,135C316,135 294,139 274,144l-29,-141C264,-4 306,-10 344,-10C497,-10 572,56 605,230l85,444l-164,0z"
   id="glyph48867" />
<glyph
   unicode="Í"
   horiz-adv-x="284"
   d="M140,674l-128,-674l164,0l127,674M253,840l-98,-130l131,0l139,130z"
   id="glyph48869" />
<glyph
   unicode="Ĭ"
   horiz-adv-x="284"
   d="M139,674l-128,-674l164,0l127,674M107,842C98,770 136,715 233,715C335,715 381,770 393,842l-90,0C298,818 281,795 242,795C207,795 193,819 194,842z"
   id="glyph48871" />
<glyph
   unicode="Î"
   horiz-adv-x="284"
   d="M139,674l-128,-674l164,0l128,674M189,840l-124,-130l122,0l50,56l2,0l33,-56l111,0l-76,130z"
   id="glyph48873" />
<glyph
   unicode="Ï"
   horiz-adv-x="284"
   d="M139,674l-128,-674l164,0l128,674M125,708C165,708 201,740 201,786C201,826 172,857 131,857C90,857 54,825 54,778C54,736 88,708 124,708M333,708C373,708 409,740 409,786C409,826 380,857 339,857C298,857 262,825 262,778C262,736 296,708 332,708z"
   id="glyph48875" />
<glyph
   unicode="İ"
   horiz-adv-x="284"
   d="M139,674l-128,-674l164,0l128,674M243,708C285,708 322,741 322,788C322,828 292,860 249,860C206,860 169,827 169,780C169,737 204,708 242,708z"
   id="glyph48877" />
<glyph
   unicode="Ì"
   horiz-adv-x="284"
   d="M139,674l-128,-674l164,0l128,674M58,840l116,-128l129,0l-75,128z"
   id="glyph48879" />
<glyph
   unicode="Ī"
   horiz-adv-x="284"
   d="M139,674l-128,-674l164,0l128,674M122,823l-17,-88l253,0l18,88z"
   id="glyph48881" />
<glyph
   unicode="Į"
   horiz-adv-x="284"
   d="M303,674l-163,0l-128,-673C-8,-25 -42,-75 -42,-125C-42,-187 -4,-220 62,-220C100,-220 142,-210 173,-185l-12,79C151,-109 133,-114 114,-114C89,-114 74,-100 74,-77C74,-56 87,-24 104,0l71,0z"
   id="glyph48883" />
<glyph
   unicode="Ι"
   horiz-adv-x="284"
   d="M139,674l-128,-674l164,0l128,674z"
   id="glyph48885" />
<glyph
   unicode="Ϊ"
   horiz-adv-x="284"
   d="M129,713C171,713 205,743 205,791C205,831 177,861 136,861C94,861 59,830 59,783C59,740 92,713 128,713M337,713C379,713 413,743 413,791C413,831 385,861 344,861C302,861 267,830 267,783C267,740 300,713 336,713M140,674l-128,-674l163,0l128,674z"
   id="glyph48887" />
<glyph
   unicode="Ί"
   horiz-adv-x="342"
   d="M197,674l-128,-674l164,0l128,674M28,674l-29,-180l90,0l68,180z"
   id="glyph48889" />
<glyph
   unicode="Ĩ"
   horiz-adv-x="284"
   d="M139,674l-128,-674l164,0l128,674M162,712C167,741 179,753 190,753C203,753 213,746 228,736C242,727 262,718 291,718C343,718 381,753 396,848l-77,0C309,814 301,804 286,804C275,804 262,813 248,824C232,833 214,842 186,842C139,842 98,804 83,712z"
   id="glyph48891" />
<glyph
   unicode="J"
   horiz-adv-x="379"
   d="M160,242C145,162 110,135 59,135C32,135 10,139 -10,144l-29,-141C-20,-4 22,-10 60,-10C213,-10 288,56 321,230l85,444l-164,0z"
   id="glyph48893" />
<glyph
   unicode="Ĵ"
   horiz-adv-x="379"
   d="M160,242C145,162 110,135 59,135C32,135 10,139 -10,144l-29,-141C-20,-4 22,-10 60,-10C213,-10 288,56 321,230l85,444l-163,0M292,840l-123,-130l122,0l50,56l2,0l32,-56l112,0l-77,130z"
   id="glyph48895" />
<glyph
   unicode="K"
   horiz-adv-x="576"
   d="M14,0l161,0l41,211l59,63l77,-274l177,0l-125,379l247,295l-197,0l-148,-210C287,437 268,411 249,378l-3,0l57,296l-161,0z"
   id="glyph48897" />
<glyph
   unicode="Κ"
   horiz-adv-x="576"
   d="M14,0l161,0l41,211l59,63l77,-274l177,0l-125,379l247,295l-197,0l-148,-210C287,437 268,411 249,378l-3,0l57,296l-161,0z"
   id="glyph48899" />
<glyph
   unicode="Ķ"
   horiz-adv-x="576"
   d="M14,0l161,0l41,211l59,63l77,-274l177,0l-126,379l248,295l-197,0l-148,-210C287,437 268,411 249,378l-3,0l56,296l-160,0M150,-242C226,-239 323,-198 323,-104C323,-75 309,-51 298,-40l-117,-19C191,-70 200,-86 200,-106C200,-142 164,-164 133,-170z"
   id="glyph48901" />
<glyph
   unicode="L"
   horiz-adv-x="464"
   d="M14,0l388,0l27,143l-224,0l101,531l-164,0z"
   id="glyph48903" />
<glyph
   unicode="Ĺ"
   horiz-adv-x="464"
   d="M14,0l388,0l27,143l-224,0l101,531l-164,0M272,840l-98,-130l131,0l139,130z"
   id="glyph48905" />
<glyph
   unicode="Λ"
   horiz-adv-x="584"
   d="M532,0l-52,674l-210,0l-304,-674l176,0l137,346C299,401 322,463 342,529l4,0C345,463 346,401 346,348l13,-348z"
   id="glyph48907" />
<glyph
   unicode="Ľ"
   horiz-adv-x="464"
   d="M14,0l388,0l27,143l-224,0l101,531l-164,0M336,478C412,481 509,523 509,617C509,645 495,669 484,680l-117,-19C377,650 386,634 386,614C386,578 350,556 319,550z"
   id="glyph48909" />
<glyph
   unicode="Ļ"
   horiz-adv-x="464"
   d="M15,0l387,0l27,143l-224,0l101,531l-163,0M100,-242C176,-239 273,-198 273,-104C273,-75 259,-51 248,-40l-117,-19C141,-70 150,-86 150,-106C150,-142 114,-164 83,-170z"
   id="glyph48911" />
<glyph
   unicode="Ŀ"
   horiz-adv-x="471"
   d="M14,0l388,0l27,143l-225,0l101,531l-163,0M391,303C433,303 470,336 470,383C470,423 440,455 397,455C354,455 317,422 317,375C317,332 352,303 390,303z"
   id="glyph48913" />
<glyph
   unicode="Ł"
   horiz-adv-x="473"
   d="M411,0l27,143l-224,0l36,190l126,77l23,124l-125,-77l41,217l-164,0l-62,-328l-74,-45l-25,-124l76,45l-42,-222z"
   id="glyph48915" />
<glyph
   unicode="M"
   horiz-adv-x="779"
   d="M687,0l92,674l-209,0l-96,-225C448,389 413,305 389,231l-4,0C386,305 380,387 378,447l-7,227l-208,0l-169,-674l147,0l54,232C211,302 230,397 251,497l2,0C254,399 259,304 262,240l11,-226l125,0l104,227C533,307 573,401 611,497l3,0C593,390 579,302 568,232l-35,-232z"
   id="glyph48917" />
<glyph
   unicode=""
   horiz-adv-x="400"
   d="M181,823l-18,-88l253,0l18,88z"
   id="glyph48919" />
<glyph
   unicode="Μ"
   horiz-adv-x="779"
   d="M687,0l92,674l-209,0l-96,-225C448,389 413,305 389,231l-4,0C386,305 380,387 378,447l-7,227l-208,0l-169,-674l147,0l54,232C211,302 230,397 251,497l2,0C254,399 259,304 262,240l11,-226l125,0l104,227C533,307 573,401 611,497l3,0C593,390 579,302 568,232l-35,-232z"
   id="glyph48921" />
<glyph
   unicode="N"
   horiz-adv-x="634"
   d="M162,0l31,165C216,283 233,395 241,462l3,0C259,373 274,315 301,216l62,-216l162,0l128,674l-149,0l-32,-170C452,395 440,298 436,225l-3,0C421,298 404,371 380,464l-56,210l-182,0l-128,-674z"
   id="glyph48923" />
<glyph
   unicode="Ń"
   horiz-adv-x="634"
   d="M162,0l31,165C216,283 233,395 241,462l3,0C259,373 274,315 301,216l62,-216l162,0l128,674l-149,0l-32,-170C452,395 440,298 436,225l-3,0C421,298 404,371 380,464l-56,210l-182,0l-128,-674M422,840l-98,-130l131,0l139,130z"
   id="glyph48925" />
<glyph
   unicode="Ň"
   horiz-adv-x="634"
   d="M162,0l31,165C216,283 233,395 241,462l3,0C259,373 274,315 301,216l62,-216l162,0l128,674l-149,0l-32,-170C452,395 440,298 436,225l-3,0C421,298 404,371 380,464l-56,210l-182,0l-128,-674M462,710l123,130l-122,0l-50,-59l-2,0l-32,59l-112,0l76,-130z"
   id="glyph48927" />
<glyph
   unicode="Ņ"
   horiz-adv-x="634"
   d="M163,0l31,165C216,283 234,395 241,462l4,0C260,373 275,315 302,216l61,-216l163,0l128,674l-150,0l-32,-170C452,395 441,298 436,225l-2,0C421,298 404,371 380,464l-56,210l-181,0l-128,-674M180,-242C256,-239 353,-198 353,-104C353,-75 339,-51 328,-40l-117,-19C221,-70 230,-86 230,-106C230,-142 194,-164 163,-170z"
   id="glyph48929" />
<glyph
   unicode="Ñ"
   horiz-adv-x="634"
   d="M162,0l31,165C216,283 233,395 241,462l3,0C259,373 274,315 301,216l62,-216l162,0l128,674l-149,0l-32,-170C452,395 440,298 436,225l-3,0C421,298 404,371 380,464l-56,210l-182,0l-128,-674M343,717C348,745 360,758 371,758C384,758 394,750 409,740C423,732 443,723 471,723C524,723 562,758 577,853l-77,0C490,819 482,809 467,809C455,809 443,818 429,829C413,838 395,847 367,847C320,847 279,809 264,717z"
   id="glyph48931" />
<glyph
   unicode="Ν"
   horiz-adv-x="634"
   d="M162,0l31,165C216,283 233,395 241,462l3,0C259,373 274,315 301,216l62,-216l162,0l128,674l-149,0l-32,-170C452,395 440,298 436,225l-3,0C421,298 404,371 380,464l-56,210l-182,0l-128,-674z"
   id="glyph48933" />
<glyph
   unicode="O"
   horiz-adv-x="654"
   d="M294,-10C386,-10 462,22 521,79C601,157 645,290 645,422C645,563 566,684 396,684C306,684 229,651 171,596C88,516 43,384 43,255C43,120 124,-10 293,-10M316,128C246,128 216,182 216,253C216,336 245,459 296,510C319,533 346,546 377,546C449,546 472,487 472,424C472,352 446,214 393,162C372,141 346,128 317,128z"
   id="glyph48935" />
<glyph
   unicode="Œ"
   horiz-adv-x="846"
   d="M787,140l-234,0l25,137l211,0l24,138l-209,0l22,119l223,0l25,140l-315,0C541,674 522,676 498,679C480,681 460,684 419,684C181,684 38,482 38,259C38,118 121,-10 303,-10C331,-10 355,-8 375,-5C393,-2 410,0 423,0l339,0M387,135C373,131 357,128 337,128C261,128 212,185 212,270C212,414 297,546 407,546C431,546 451,542 463,536z"
   id="glyph48937" />
<glyph
   unicode="Ó"
   horiz-adv-x="654"
   d="M294,-10C386,-10 462,22 521,79C601,157 645,290 645,422C645,563 566,684 396,684C306,684 229,651 171,596C88,516 43,384 43,255C43,120 124,-10 293,-10M316,128C246,128 216,182 216,253C216,336 245,459 296,510C319,533 346,546 377,546C449,546 472,487 472,424C472,352 446,214 393,162C372,141 346,128 317,128M428,843l-99,-130l132,0l139,130z"
   id="glyph48939" />
<glyph
   unicode="Ŏ"
   horiz-adv-x="654"
   d="M294,-10C385,-10 462,22 521,79C601,157 645,290 645,422C645,563 566,684 396,684C306,684 229,651 171,596C88,516 43,384 43,255C43,120 124,-10 293,-10M316,128C246,128 216,182 216,253C216,336 245,459 296,510C319,533 346,546 376,546C449,546 472,487 472,424C472,352 445,214 393,162C372,141 345,128 317,128M285,842C276,770 314,715 411,715C513,715 559,770 572,842l-91,0C476,818 459,795 420,795C385,795 371,819 372,842z"
   id="glyph48941" />
<glyph
   unicode="Ô"
   horiz-adv-x="654"
   d="M294,-10C386,-10 462,22 521,79C601,157 645,290 645,422C645,563 566,684 396,684C306,684 229,651 171,596C88,516 43,384 43,255C43,120 124,-10 293,-10M316,128C246,128 216,182 216,253C216,336 245,459 296,510C319,533 346,546 377,546C449,546 472,487 472,424C472,352 446,214 393,162C372,141 346,128 317,128M369,840l-124,-130l122,0l50,56l2,0l33,-56l111,0l-76,130z"
   id="glyph48943" />
<glyph
   unicode="Ö"
   horiz-adv-x="654"
   d="M294,-10C385,-10 463,22 521,79C601,157 645,290 645,422C645,563 566,684 396,684C305,684 229,651 171,596C88,516 43,384 43,255C43,120 124,-10 293,-10M316,128C246,128 216,182 216,253C216,336 245,459 296,510C318,533 346,546 376,546C449,546 472,487 472,424C472,352 446,214 393,162C372,141 345,128 317,128M311,708C351,708 387,740 387,786C387,826 358,857 317,857C276,857 240,825 240,778C240,736 274,708 310,708M519,708C559,708 595,740 595,786C595,826 566,857 525,857C484,857 448,825 448,778C448,736 482,708 518,708z"
   id="glyph48945" />
<glyph
   unicode="Ò"
   horiz-adv-x="654"
   d="M294,-10C386,-10 462,22 521,79C601,157 645,290 645,422C645,563 566,684 396,684C306,684 229,651 171,596C88,516 43,384 43,255C43,120 124,-10 293,-10M316,128C246,128 216,182 216,253C216,336 245,459 296,510C319,533 346,546 377,546C449,546 472,487 472,424C472,352 446,214 393,162C372,141 346,128 317,128M234,840l116,-128l129,0l-75,128z"
   id="glyph48947" />
<glyph
   unicode="Ő"
   horiz-adv-x="654"
   d="M294,-10C386,-10 462,22 521,79C601,157 645,290 645,422C645,563 566,684 396,684C306,684 229,651 171,596C88,516 43,384 43,255C43,120 124,-10 293,-10M316,128C246,128 216,182 216,253C216,336 245,459 296,510C319,533 346,546 377,546C449,546 472,487 472,424C472,352 446,214 393,162C372,141 346,128 317,128M331,841l-82,-124l112,0l118,124M518,841l-82,-124l111,0l118,124z"
   id="glyph48949" />
<glyph
   unicode="Ō"
   horiz-adv-x="654"
   d="M294,-10C386,-10 462,22 521,79C601,157 645,290 645,422C645,563 566,684 396,684C306,684 229,651 171,596C88,516 43,384 43,255C43,120 124,-10 293,-10M316,128C246,128 216,182 216,253C216,336 245,459 296,510C319,533 346,546 377,546C449,546 472,487 472,424C472,352 446,214 393,162C372,141 346,128 317,128M299,823l-17,-88l254,0l17,88z"
   id="glyph48951" />
<glyph
   unicode="Ω"
   horiz-adv-x="674"
   d="M119,126l-115,0l-22,-126l279,0l17,99C241,132 218,194 218,270C218,454 301,551 382,551C449,551 489,504 489,420C489,261 403,149 335,99l-17,-99l281,0l23,126l-108,0l0,5C579,183 664,289 664,433C664,563 574,684 398,684C206,684 49,531 49,329C49,246 84,174 120,131z"
   id="glyph48953" />
<glyph
   unicode="Ώ"
   horiz-adv-x="719"
   d="M164,126l-115,0l-22,-126l279,0l17,99C286,132 263,194 263,270C263,454 347,551 428,551C495,551 534,504 534,420C534,261 448,149 380,99l-17,-99l281,0l23,126l-106,0l0,5C625,183 709,288 709,433C709,563 620,684 443,684C251,684 94,531 94,329C94,246 129,174 165,131M27,674l-29,-180l90,0l68,180z"
   id="glyph48955" />
<glyph
   unicode="Ο"
   horiz-adv-x="654"
   d="M294,-10C386,-10 462,22 519,77C601,155 645,289 645,422C645,563 566,684 396,684C306,684 229,651 171,596C88,516 43,384 43,255C43,120 124,-10 293,-10M316,128C246,128 216,182 216,253C216,370 277,546 377,546C449,546 472,487 472,424C472,321 415,128 317,128z"
   id="glyph48957" />
<glyph
   unicode="Ό"
   horiz-adv-x="695"
   d="M335,-10C427,-10 503,22 560,77C642,155 686,289 686,422C686,563 607,684 437,684C347,684 270,651 212,596C129,516 84,384 84,255C84,120 165,-10 334,-10M357,128C287,128 257,182 257,253C257,370 318,546 418,546C490,546 513,487 513,424C513,321 456,128 358,128M27,674l-29,-180l90,0l68,180z"
   id="glyph48959" />
<glyph
   unicode="Ø"
   horiz-adv-x="646"
   d="M100,-70l70,90C204,0 245,-10 297,-10C381,-10 461,24 520,82C595,158 642,280 641,419C640,495 622,550 595,585l70,96l-79,55l-63,-85C488,673 445,684 386,684C301,684 225,651 167,595C87,518 39,397 39,264C39,183 60,122 94,82l-66,-89M211,231l-4,0C200,289 204,345 222,396C248,476 303,548 374,548C398,548 417,541 429,530M472,429l5,0C478,369 473,320 457,273C431,193 380,126 313,126C291,126 274,131 262,141z"
   id="glyph48961" />
<glyph
   unicode="Ǿ"
   horiz-adv-x="646"
   d="M100,-70l70,90C204,0 245,-10 297,-10C381,-10 461,24 520,82C595,158 642,280 641,419C640,495 622,550 595,585l70,96l-79,55l-63,-85C488,673 445,684 386,684C301,684 225,651 167,595C87,518 39,397 39,264C39,183 60,122 94,82l-66,-89M211,231l-4,0C200,289 204,345 222,396C248,476 303,548 374,548C398,548 417,541 429,530M472,429l5,0C478,369 473,320 457,273C431,193 380,126 313,126C291,126 274,131 262,141M424,843l-99,-130l132,0l139,130z"
   id="glyph48963" />
<glyph
   unicode="Õ"
   horiz-adv-x="654"
   d="M294,-10C386,-10 462,22 521,79C601,157 645,290 645,422C645,563 566,684 396,684C306,684 229,651 171,596C88,516 43,384 43,255C43,120 124,-10 293,-10M316,128C246,128 216,182 216,253C216,336 245,459 296,510C319,533 346,546 377,546C449,546 472,487 472,424C472,352 446,214 393,162C372,141 346,128 317,128M337,717C343,745 355,758 366,758C379,758 388,750 403,740C417,732 437,723 466,723C518,723 556,758 571,853l-77,0C484,819 477,809 462,809C450,809 438,818 423,829C408,838 390,847 362,847C314,847 273,809 258,717z"
   id="glyph48965" />
<glyph
   unicode="P"
   horiz-adv-x="549"
   d="M14,0l160,0l44,232C229,231 246,229 264,229C341,229 417,248 471,289C523,330 566,397 566,490C566,550 540,601 495,632C444,670 371,678 316,678C254,678 185,672 140,661M278,545C287,547 302,548 323,548C367,548 402,528 402,476C402,422 362,362 284,362C265,362 254,363 243,365z"
   id="glyph48967" />
<glyph
   unicode="Φ"
   horiz-adv-x="736"
   d="M241,-29l149,0l12,59C553,40 726,165 726,393C726,539 626,626 518,647l10,56l-149,0l-11,-56C230,643 43,520 43,288C43,142 140,54 252,30M274,149C234,163 206,214 206,290C206,414 282,524 346,530M495,529C536,517 563,469 563,394C563,248 483,154 422,148z"
   id="glyph48969" />
<glyph
   unicode="Π"
   horiz-adv-x="624"
   d="M645,674l-504,0l-128,-674l164,0l101,534l176,0l-100,-534l164,0z"
   id="glyph48971" />
<glyph
   unicode="Ψ"
   horiz-adv-x="671"
   d="M723,674l-157,0l-35,-183C508,366 475,310 416,302l71,372l-148,0l-72,-371C233,311 210,332 210,391C210,411 215,437 220,467l40,207l-158,0l-41,-218C54,422 52,393 52,374C52,249 142,192 244,178l-34,-178l150,0l34,178C542,189 648,283 682,456z"
   id="glyph48973" />
<glyph
   unicode="Q"
   horiz-adv-x="654"
   d="M595,0C541,12 494,25 458,39l1,3C488,56 510,74 530,93C602,165 644,301 644,421C644,539 578,684 396,684C307,684 226,651 165,589C84,507 43,378 43,258C43,98 133,1 258,-8C264,-8 272,-11 298,-24C357,-54 445,-95 532,-126M317,127C250,127 216,174 216,248C216,323 242,457 296,510C318,532 345,546 377,546C451,546 472,483 472,428C472,349 442,211 392,160C371,139 346,127 318,127z"
   id="glyph48975" />
<glyph
   unicode="R"
   horiz-adv-x="572"
   d="M15,0l161,0l48,256l27,0C298,256 320,235 324,158C329,77 335,19 340,0l166,0C495,28 491,125 484,193C478,254 463,294 427,312l0,3C510,344 572,407 572,507C572,570 541,613 498,639C451,670 383,678 321,678C255,678 188,672 141,661M280,547C290,549 304,550 324,550C371,550 403,524 403,483C403,424 356,378 293,378l-44,0z"
   id="glyph48977" />
<glyph
   unicode="Ŕ"
   horiz-adv-x="572"
   d="M15,0l161,0l48,256l27,0C298,256 320,235 324,158C329,77 335,19 340,0l166,0C495,28 491,125 484,193C478,254 463,294 427,312l0,3C510,344 572,407 572,507C572,570 541,613 498,639C451,670 383,678 321,678C255,678 188,672 141,661M280,547C290,549 304,550 324,550C371,550 403,524 403,483C403,424 356,378 293,378l-44,0M362,840l-98,-130l131,0l139,130z"
   id="glyph48979" />
<glyph
   unicode="Ř"
   horiz-adv-x="572"
   d="M15,0l161,0l48,256l27,0C298,256 320,235 324,158C329,77 335,19 340,0l166,0C495,28 491,125 484,193C478,254 463,294 427,312l0,3C510,344 572,407 572,507C572,570 541,613 498,639C451,670 383,678 321,678C255,678 188,672 141,661M280,547C290,549 304,550 324,550C371,550 403,524 403,483C403,424 356,378 293,378l-44,0M406,710l122,130l-121,0l-51,-59l-2,0l-31,59l-112,0l76,-130z"
   id="glyph48981" />
<glyph
   unicode="Ŗ"
   horiz-adv-x="572"
   d="M15,0l161,0l48,256l27,0C298,256 320,235 324,158C329,77 335,19 340,0l166,0C495,28 491,125 484,193C478,254 463,294 427,312l0,3C510,344 572,407 572,507C572,570 541,613 498,639C451,670 383,678 321,678C255,678 188,672 142,661M280,547C290,549 304,550 324,550C370,550 403,524 403,483C403,424 356,378 293,378l-44,0M149,-242C225,-239 322,-198 322,-104C322,-75 308,-51 297,-40l-117,-19C190,-70 199,-86 199,-106C199,-142 163,-164 132,-170z"
   id="glyph48983" />
<glyph
   unicode="Ρ"
   horiz-adv-x="549"
   d="M14,0l160,0l44,232C229,231 245,229 264,229C341,229 417,248 471,289C523,330 566,397 566,490C566,550 540,601 495,632C444,670 371,678 316,678C254,678 185,672 140,661M278,545C287,547 302,548 323,548C367,548 402,528 402,476C402,422 362,362 284,362C265,362 254,363 243,365z"
   id="glyph48985" />
<glyph
   unicode="S"
   horiz-adv-x="487"
   d="M-5,33C23,14 84,-8 179,-9C323,-9 450,65 450,224C450,295 405,351 330,396C277,431 244,452 244,482C244,516 274,541 331,541C379,542 421,527 443,516l48,138C464,668 421,683 341,683C190,683 74,596 74,456C74,374 135,321 197,282C250,248 278,229 278,193C278,152 237,132 190,133C133,133 81,149 45,169z"
   id="glyph48987" />
<glyph
   unicode="Ś"
   horiz-adv-x="487"
   d="M-5,33C23,14 84,-8 179,-9C323,-9 450,65 450,224C450,295 405,351 330,396C277,431 244,452 244,482C244,516 274,541 331,541C379,542 421,527 443,516l48,138C464,668 421,683 341,683C190,683 74,596 74,456C74,374 135,321 197,282C250,248 278,229 278,193C278,152 237,132 190,133C133,133 81,149 45,169M343,840l-98,-130l131,0l139,130z"
   id="glyph48989" />
<glyph
   unicode="Š"
   horiz-adv-x="487"
   d="M-5,33C23,14 84,-8 179,-9C323,-9 450,65 450,224C450,295 405,351 330,396C277,431 244,452 244,482C244,516 274,541 331,541C379,542 421,527 443,516l48,138C464,668 421,683 341,683C190,683 74,596 74,456C74,374 135,321 197,282C250,248 278,229 278,193C278,152 237,132 190,133C133,133 81,149 45,169M385,710l123,130l-122,0l-51,-59l-2,0l-32,59l-111,0l76,-130z"
   id="glyph48991" />
<glyph
   unicode="Ş"
   horiz-adv-x="487"
   d="M491,654C464,668 421,683 341,683C190,683 74,596 74,456C74,374 135,321 197,282C250,248 278,229 278,193C278,152 237,132 190,133C133,133 81,149 45,169l-50,-136C36,5 117,-9 163,-9C164,-9 166,-9 167,-9l-44,-68C177,-81 193,-95 193,-113C193,-132 175,-139 159,-139C142,-139 122,-133 106,-123l-26,-61C95,-196 125,-205 158,-205C211,-205 288,-183 288,-106C288,-74 263,-47 227,-39l25,37C363,19 450,93 450,224C450,295 405,351 330,396C277,431 244,452 244,482C244,516 274,541 331,541C379,542 421,527 443,516z"
   id="glyph48993" />
<glyph
   unicode="Ŝ"
   horiz-adv-x="487"
   d="M-5,33C23,14 84,-8 179,-9C323,-9 450,65 450,224C450,295 405,351 330,396C277,431 244,452 244,482C244,516 274,541 331,541C379,542 421,527 443,516l48,138C464,668 421,683 341,683C190,683 74,596 74,456C74,374 135,321 197,282C250,248 278,229 278,193C278,152 237,132 190,133C133,133 81,149 45,169M295,840l-123,-130l121,0l50,56l2,0l33,-56l111,0l-76,130z"
   id="glyph48995" />
<glyph
   unicode="Ș"
   horiz-adv-x="487"
   d="M-5,33C23,14 84,-8 179,-9C323,-9 450,65 450,224C450,295 405,351 330,396C277,431 244,452 244,482C244,516 274,541 331,541C379,542 421,527 443,516l48,138C464,668 421,683 341,683C190,683 74,596 74,456C74,374 135,321 197,282C250,248 278,229 278,193C278,152 237,132 190,133C133,133 81,149 45,169M105,-242C181,-239 278,-198 278,-103C278,-75 264,-51 253,-40l-117,-19C146,-70 155,-86 155,-106C155,-142 119,-164 88,-170z"
   id="glyph48997" />
<glyph
   unicode="Σ"
   horiz-adv-x="521"
   d="M219,145l172,189l-115,197l1,3l246,0l24,140l-451,0l-19,-111l129,-225l-213,-240l-15,-98l478,0l25,141l-262,0z"
   id="glyph48999" />
<glyph
   unicode="T"
   horiz-adv-x="500"
   d="M118,0l164,0l100,528l155,0l28,146l-471,0l-29,-146l153,0z"
   id="glyph49001" />
<glyph
   unicode="Τ"
   horiz-adv-x="500"
   d="M118,0l164,0l100,528l155,0l28,146l-471,0l-29,-146l153,0z"
   id="glyph49003" />
<glyph
   unicode="Ŧ"
   horiz-adv-x="500"
   d="M443,281l20,103l-108,0l27,144l155,0l28,146l-471,0l-29,-146l153,0l-27,-144l-103,0l-20,-103l104,0l-54,-281l164,0l53,281z"
   id="glyph49005" />
<glyph
   unicode="Ť"
   horiz-adv-x="500"
   d="M118,0l164,0l100,528l155,0l28,146l-471,0l-29,-146l153,0M394,710l124,130l-122,0l-51,-59l-2,0l-31,59l-112,0l76,-130z"
   id="glyph49007" />
<glyph
   unicode="Ţ"
   horiz-adv-x="500"
   d="M118,0l163,0l100,528l155,0l28,146l-471,0l-29,-146l153,0M104,-242C180,-239 277,-198 277,-104C277,-75 263,-51 252,-40l-117,-19C145,-70 154,-86 154,-106C154,-142 118,-164 87,-170z"
   id="glyph49009" />
<glyph
   unicode="Θ"
   horiz-adv-x="654"
   d="M294,-10C385,-10 462,22 518,77C600,155 645,288 645,421C645,563 566,684 396,684C306,684 229,651 171,596C88,516 43,383 43,255C43,120 124,-10 293,-10M316,126C245,126 215,182 215,252C215,370 277,548 377,548C449,548 473,488 473,423C473,320 415,126 317,126M283,407l-23,-132l148,0l24,132z"
   id="glyph49011" />
<glyph
   unicode="Þ"
   horiz-adv-x="549"
   d="M14,0l160,0l24,123C210,122 227,120 253,120C405,120 546,201 546,384C546,434 527,481 486,515C445,550 389,562 334,562C311,562 292,561 280,560l22,114l-160,0M256,429C265,431 281,432 297,432C352,432 382,407 382,361C382,302 336,252 266,252C247,252 232,253 223,255z"
   id="glyph49013" />
<glyph
   unicode="U"
   horiz-adv-x="620"
   d="M137,674l-72,-379C59,260 54,224 54,195C54,63 128,-11 270,-10C455,-10 533,95 570,287l73,387l-163,0l-77,-400C383,166 346,129 289,129C240,129 217,163 217,201C217,227 220,253 225,277l76,397z"
   id="glyph49015" />
<glyph
   unicode="Ú"
   horiz-adv-x="620"
   d="M137,674l-72,-379C59,260 54,224 54,195C54,63 128,-11 270,-10C455,-10 533,95 570,287l73,387l-163,0l-77,-400C383,166 346,129 289,129C240,129 217,163 217,201C217,227 220,253 225,277l76,397M420,840l-98,-130l131,0l139,130z"
   id="glyph49017" />
<glyph
   unicode="Ŭ"
   horiz-adv-x="620"
   d="M137,674l-72,-379C59,260 54,224 54,195C54,63 128,-11 271,-10C454,-10 533,95 570,287l73,387l-164,0l-76,-400C383,166 346,129 290,129C240,129 217,163 217,201C217,227 220,253 225,277l76,397M275,837C266,765 304,710 401,710C503,710 549,765 561,837l-90,0C466,813 449,790 410,790C375,790 361,814 362,837z"
   id="glyph49019" />
<glyph
   unicode="Û"
   horiz-adv-x="620"
   d="M137,674l-72,-379C59,260 54,224 54,195C54,63 128,-11 270,-10C455,-10 533,95 570,287l73,387l-163,0l-77,-400C383,166 346,129 289,129C240,129 217,163 217,201C217,227 220,253 225,277l76,397M362,840l-123,-130l122,0l50,56l2,0l33,-56l111,0l-76,130z"
   id="glyph49021" />
<glyph
   unicode="Ü"
   horiz-adv-x="620"
   d="M137,674l-72,-379C59,260 54,224 54,195C54,63 128,-11 271,-10C455,-10 533,95 570,287l73,387l-163,0l-76,-400C383,166 347,129 290,129C241,129 217,163 217,201C217,227 220,253 225,277l76,397M303,708C343,708 379,740 379,786C379,826 350,857 309,857C268,857 232,825 232,778C232,736 266,708 302,708M510,708C550,708 586,740 586,786C586,826 557,857 516,857C475,857 439,825 439,778C439,736 473,708 509,708z"
   id="glyph49023" />
<glyph
   unicode="Ù"
   horiz-adv-x="620"
   d="M137,674l-72,-379C59,260 54,224 54,195C54,63 128,-11 270,-10C455,-10 533,95 570,287l73,387l-163,0l-77,-400C383,166 346,129 289,129C240,129 217,163 217,201C217,227 220,253 225,277l76,397M231,840l116,-128l129,0l-75,128z"
   id="glyph49025" />
<glyph
   unicode="Ű"
   horiz-adv-x="620"
   d="M137,674l-72,-379C59,260 54,224 54,195C54,63 128,-11 270,-10C455,-10 533,95 570,287l73,387l-163,0l-77,-400C383,166 346,129 289,129C240,129 217,163 217,201C217,227 220,253 225,277l76,397M314,841l-82,-124l111,0l118,124M500,841l-82,-124l112,0l118,124z"
   id="glyph49027" />
<glyph
   unicode="Ū"
   horiz-adv-x="620"
   d="M137,674l-72,-379C59,260 54,224 54,195C54,63 128,-11 270,-10C455,-10 533,95 570,287l73,387l-163,0l-77,-400C383,166 346,129 289,129C240,129 217,163 217,201C217,227 220,253 225,277l76,397M290,823l-18,-88l254,0l18,88z"
   id="glyph49029" />
<glyph
   unicode="Ų"
   horiz-adv-x="620"
   d="M366,-108C357,-110 337,-115 320,-115C304,-115 292,-106 292,-88C292,-70 310,-38 343,-15C360,-2 373,4 387,9C490,46 542,141 570,287l73,387l-164,0l-76,-400C383,165 346,128 289,128C240,128 217,162 217,200C217,226 220,252 225,276l75,398l-163,0l-72,-379C59,259 54,224 54,194C54,76 114,4 227,-8C231,-8 236,-8 239,-8C202,-43 174,-89 174,-131C174,-187 210,-220 272,-220C311,-220 353,-212 385,-188z"
   id="glyph49031" />
<glyph
   unicode="Υ"
   horiz-adv-x="529"
   d="M35,542C150,517 179,385 172,261C170,214 166,183 157,135l-25,-135l163,0l25,135C328,175 339,218 358,267C401,379 500,502 599,530l-14,150C550,680 479,657 418,598C363,546 321,471 297,388l-8,0C296,477 276,555 236,604C195,657 129,680 75,680z"
   id="glyph49033" />
<glyph
   unicode="Ϋ"
   horiz-adv-x="529"
   d="M238,698C280,698 314,728 314,776C314,816 286,846 245,846C203,846 168,815 168,768C168,725 201,698 237,698M447,698C489,698 523,728 523,776C523,816 495,846 454,846C412,846 377,815 377,768C377,725 410,698 446,698M35,542C150,517 179,385 172,261C170,214 166,183 157,135l-25,-135l163,0l25,135C328,175 339,218 358,267C401,379 500,502 599,530l-14,150C550,680 479,657 418,598C363,546 321,471 297,388l-8,0C296,477 276,555 236,604C195,657 129,680 75,680z"
   id="glyph49035" />
<glyph
   unicode="Ύ"
   horiz-adv-x="666"
   d="M170,542C285,518 314,386 307,261C305,214 301,183 292,135l-25,-135l163,0l25,135C463,175 474,218 493,267C536,379 635,502 734,530l-14,150C685,680 614,657 553,598C498,546 456,471 432,388l-8,0C431,477 411,555 371,604C330,657 264,680 210,680M29,674l-30,-180l90,0l68,180z"
   id="glyph49037" />
<glyph
   unicode="Ů"
   horiz-adv-x="620"
   d="M137,674l-72,-379C59,260 54,224 54,195C54,63 128,-11 271,-10C455,-10 534,95 571,287l73,387l-164,0l-76,-400C383,166 347,129 290,129C240,129 217,163 217,201C217,227 220,253 225,277l76,397M407,882C332,882 282,839 283,780C285,729 329,693 394,693C468,693 518,732 520,792C520,849 475,882 408,882M403,831C430,831 443,811 443,789C443,764 428,744 399,744C373,744 360,763 360,784C360,809 375,831 402,831z"
   id="glyph49039" />
<glyph
   unicode="Ũ"
   horiz-adv-x="620"
   d="M137,674l-72,-379C59,260 54,224 54,195C54,63 128,-11 270,-10C455,-10 533,95 570,287l73,387l-163,0l-77,-400C383,166 346,129 289,129C240,129 217,163 217,201C217,227 220,253 225,277l76,397M338,717C343,745 355,758 366,758C379,758 389,750 404,740C418,732 438,723 466,723C519,723 557,758 572,853l-78,0C484,819 477,809 462,809C450,809 438,818 424,829C408,838 390,847 362,847C315,847 274,809 259,717z"
   id="glyph49041" />
<glyph
   unicode="V"
   horiz-adv-x="582"
   d="M329,0l326,674l-183,0l-117,-286C327,321 294,237 270,168l-2,0C265,240 264,321 260,390l-11,284l-173,0l65,-674z"
   id="glyph49043" />
<glyph
   unicode="W"
   horiz-adv-x="815"
   d="M274,0l77,193C390,289 416,373 441,447l2,0C438,373 434,289 434,208l-1,-208l178,0l273,674l-169,0l-85,-259C606,340 580,259 557,183l-2,0C561,261 565,335 568,412l11,262l-172,0l-95,-262C284,333 258,257 233,180l-2,0C236,252 239,338 243,418l12,256l-167,0l8,-674z"
   id="glyph49045" />
<glyph
   unicode="Ẃ"
   horiz-adv-x="815"
   d="M274,0l77,193C390,289 416,373 441,447l2,0C438,373 434,289 434,208l-1,-208l178,0l273,674l-169,0l-85,-259C606,340 580,259 557,183l-2,0C561,261 565,335 568,412l11,262l-172,0l-95,-262C284,333 258,257 233,180l-2,0C236,252 239,338 243,418l12,256l-167,0l8,-674M518,840l-99,-130l132,0l139,130z"
   id="glyph49047" />
<glyph
   unicode="Ŵ"
   horiz-adv-x="815"
   d="M274,0l77,193C390,289 416,373 441,447l2,0C438,373 434,289 434,208l-1,-208l178,0l273,674l-169,0l-85,-259C606,340 580,259 557,183l-2,0C561,261 565,335 568,412l11,262l-172,0l-95,-262C284,333 258,257 233,180l-2,0C236,252 239,338 243,418l12,256l-167,0l8,-674M459,840l-123,-130l122,0l50,56l2,0l33,-56l111,0l-76,130z"
   id="glyph49049" />
<glyph
   unicode="Ẅ"
   horiz-adv-x="815"
   d="M274,0l77,193C390,289 416,373 441,447l2,0C437,373 434,289 433,208l-1,-208l179,0l273,674l-169,0l-84,-259C606,340 580,259 557,183l-2,0C562,261 565,335 568,412l11,262l-173,0l-94,-262C284,333 257,257 233,180l-2,0C236,252 239,338 243,418l12,256l-167,0l7,-674M403,708C443,708 479,740 479,786C479,826 450,857 409,857C368,857 332,825 332,778C332,736 366,708 402,708M611,708C651,708 687,740 687,786C687,826 658,857 617,857C576,857 540,825 540,778C540,736 574,708 610,708z"
   id="glyph49051" />
<glyph
   unicode="Ẁ"
   horiz-adv-x="815"
   d="M274,0l77,193C390,289 416,373 441,447l2,0C438,373 434,289 434,208l-1,-208l178,0l273,674l-169,0l-85,-259C606,340 580,259 557,183l-2,0C561,261 565,335 568,412l11,262l-172,0l-95,-262C284,333 258,257 233,180l-2,0C236,252 239,338 243,418l12,256l-167,0l8,-674M323,840l116,-128l129,0l-75,128z"
   id="glyph49053" />
<glyph
   unicode="X"
   horiz-adv-x="528"
   d="M484,0l-106,340l223,334l-187,0l-54,-108C341,526 327,496 303,447l-2,0C293,489 286,517 277,564l-24,110l-171,0l94,-328l-228,-346l188,0l60,119C220,167 233,196 254,237l2,0C265,195 272,167 281,127l31,-127z"
   id="glyph49055" />
<glyph
   unicode="Ξ"
   horiz-adv-x="529"
   d="M123,674l-24,-138l438,0l24,138M104,412l-24,-137l384,0l24,137M16,140l-24,-140l463,0l24,140z"
   id="glyph49057" />
<glyph
   unicode="Y"
   horiz-adv-x="532"
   d="M288,0l51,267l273,407l-189,0l-77,-152C321,472 303,432 283,391l-2,0C277,426 272,462 264,525l-26,149l-175,0l112,-410l-50,-264z"
   id="glyph49059" />
<glyph
   unicode="Ý"
   horiz-adv-x="532"
   d="M288,0l51,267l273,407l-189,0l-77,-152C321,472 303,432 283,391l-2,0C277,426 272,462 264,525l-26,149l-175,0l112,-410l-50,-264M364,840l-98,-130l131,0l139,130z"
   id="glyph49061" />
<glyph
   unicode="Ŷ"
   horiz-adv-x="532"
   d="M288,0l51,267l273,407l-189,0l-77,-152C321,472 303,432 283,391l-2,0C277,426 272,462 264,525l-26,149l-175,0l112,-410l-50,-264M305,840l-123,-130l122,0l50,56l2,0l32,-56l112,0l-77,130z"
   id="glyph49063" />
<glyph
   unicode="Ÿ"
   horiz-adv-x="532"
   d="M288,0l50,267l273,407l-188,0l-77,-152C320,472 302,432 283,391l-2,0C276,426 272,462 263,525l-25,149l-175,0l112,-410l-50,-264M241,708C281,708 317,740 317,786C317,826 288,857 247,857C206,857 170,825 170,778C170,736 204,708 240,708M448,708C488,708 524,740 524,786C524,826 495,857 454,857C413,857 377,825 377,778C377,736 411,708 447,708z"
   id="glyph49065" />
<glyph
   unicode="Ỳ"
   horiz-adv-x="532"
   d="M288,0l51,267l273,407l-189,0l-77,-152C321,472 303,432 283,391l-2,0C277,426 272,462 264,525l-26,149l-175,0l112,-410l-50,-264M175,840l115,-128l129,0l-75,128z"
   id="glyph49067" />
<glyph
   unicode="Z"
   horiz-adv-x="512"
   d="M-31,0l468,0l27,142l-250,0l0,3l327,419l21,110l-439,0l-28,-142l230,0l0,-3l-338,-433z"
   id="glyph49069" />
<glyph
   unicode="Ź"
   horiz-adv-x="512"
   d="M-31,0l468,0l27,142l-250,0l0,3l327,419l21,110l-439,0l-28,-142l230,0l0,-3l-338,-433M361,840l-99,-130l132,0l139,130z"
   id="glyph49071" />
<glyph
   unicode="Ž"
   horiz-adv-x="512"
   d="M-31,0l468,0l27,142l-250,0l0,3l327,419l21,110l-439,0l-28,-142l230,0l0,-3l-338,-433M398,710l124,130l-122,0l-51,-59l-2,0l-32,59l-111,0l76,-130z"
   id="glyph49073" />
<glyph
   unicode="Ż"
   horiz-adv-x="512"
   d="M-31,0l468,0l27,142l-250,0l0,3l327,419l21,110l-439,0l-28,-142l229,0l0,-3l-337,-433M346,708C388,708 425,741 425,788C425,828 395,860 352,860C309,860 272,827 272,780C272,737 307,708 345,708z"
   id="glyph49075" />
<glyph
   unicode="Ζ"
   horiz-adv-x="512"
   d="M-31,0l468,0l27,142l-250,0l0,3l327,419l21,110l-439,0l-28,-142l230,0l0,-3l-338,-433z"
   id="glyph49077" />
<glyph
   unicode="a"
   horiz-adv-x="531"
   d="M451,0C450,61 460,161 470,215l53,261C482,490 418,502 357,502C114,502 20,317 20,158C20,58 75,-10 161,-10C209,-10 266,14 305,83l3,0C307,55 306,28 304,0M318,262C298,155 262,122 232,122C203,122 188,148 188,190C188,258 236,380 312,380C319,380 330,379 341,377z"
   id="glyph49079" />
<glyph
   unicode="á"
   horiz-adv-x="531"
   d="M451,0C450,61 460,161 470,215l53,261C482,490 418,502 357,502C114,502 20,317 20,158C20,58 75,-10 161,-10C209,-10 266,14 305,83l3,0C307,55 306,28 304,0M318,262C298,155 262,122 232,122C203,122 188,148 188,190C188,258 236,380 312,380C319,380 330,379 341,377M371,701l-92,-151l116,0l128,151z"
   id="glyph49081" />
<glyph
   unicode="ă"
   horiz-adv-x="531"
   d="M451,0C450,61 460,161 470,215l53,261C482,490 418,502 357,502C114,502 20,317 20,158C20,58 75,-10 161,-10C209,-10 266,14 305,83l3,0C307,55 306,28 304,0M318,262C298,155 262,122 231,122C202,122 188,148 188,190C188,258 235,380 312,380C319,380 330,379 341,377M219,689C210,610 244,557 334,557C420,557 468,608 480,689l-82,0C393,664 378,637 341,637C309,637 301,660 298,689z"
   id="glyph49083" />
<glyph
   unicode="â"
   horiz-adv-x="531"
   d="M451,0C450,61 460,161 470,215l53,261C482,490 418,502 357,502C114,502 20,317 20,158C20,58 75,-10 161,-10C209,-10 266,14 305,83l3,0C307,55 306,28 304,0M318,262C298,155 262,122 232,122C203,122 188,148 188,190C188,258 236,380 312,380C319,380 330,379 341,377M316,701l-119,-151l110,0l51,71l2,0l34,-71l102,0l-72,151z"
   id="glyph49085" />
<glyph
   unicode="´"
   horiz-adv-x="400"
   d="M272,701l-92,-151l117,0l128,151z"
   id="glyph49087" />
<glyph
   unicode="ä"
   horiz-adv-x="531"
   d="M451,0C450,61 460,161 470,215l53,261C482,490 418,502 357,502C114,502 20,317 20,158C20,58 75,-10 161,-10C209,-10 266,14 305,83l3,0C307,55 306,28 304,0M318,262C298,155 262,122 232,122C203,122 188,148 188,190C188,258 236,380 312,380C319,380 330,379 341,377M233,548C277,548 311,579 311,629C311,672 283,703 240,703C196,703 160,671 160,622C160,576 194,548 232,548M437,548C481,548 516,579 516,629C516,672 487,703 444,703C400,703 364,671 364,622C364,576 398,548 436,548z"
   id="glyph49089" />
<glyph
   unicode="æ"
   horiz-adv-x="732"
   d="M654,144C611,127 575,117 523,117C482,117 447,129 431,151C423,163 422,180 423,194C593,185 720,227 720,362C720,431 667,502 555,502C486,502 429,473 394,432l-3,0C367,478 317,502 247,502C180,502 114,477 73,451l23,-105C127,366 174,387 227,387C281,387 301,357 297,339l-2,-12C168,329 1,276 1,127C1,50 60,-10 149,-10C224,-10 281,21 321,68l3,0C352,17 414,-10 480,-10C531,-10 601,-3 658,27M271,178C262,137 235,114 202,114C176,114 160,130 160,154C160,210 236,224 280,222M566,344C566,307 507,299 439,304C444,337 474,382 522,382C552,382 566,363 566,345z"
   id="glyph49091" />
<glyph
   unicode="ǽ"
   horiz-adv-x="732"
   d="M654,144C611,127 575,117 523,117C482,117 447,129 431,151C423,163 422,180 423,194C593,185 720,227 720,362C720,431 667,502 555,502C486,502 429,473 394,432l-3,0C367,478 317,502 247,502C180,502 114,477 73,451l23,-105C127,366 174,387 227,387C281,387 301,357 297,339l-2,-12C168,329 1,276 1,127C1,50 60,-10 149,-10C224,-10 281,21 321,68l3,0C352,17 414,-10 480,-10C531,-10 601,-3 658,27M271,178C262,137 235,114 202,114C176,114 160,130 160,154C160,210 236,224 280,222M566,344C566,307 507,299 439,304C444,337 474,382 522,382C552,382 566,363 566,345M437,701l-92,-151l117,0l128,151z"
   id="glyph49093" />
<glyph
   unicode="А"
   horiz-adv-x="584"
   d="M358,151l4,-151l169,0l-51,674l-208,0l-305,-674l171,0l62,151M244,273l50,128C309,439 330,503 347,547l2,0C350,503 351,440 352,401l3,-128z"
   id="glyph49095" />
<glyph
   unicode="Б"
   horiz-adv-x="564"
   d="M141,674l-126,-671C47,-2 120,-7 187,-7C286,-7 384,15 450,73C497,113 529,171 529,249C529,370 439,439 327,439C302,439 278,437 258,432l18,98l251,0l25,144M233,310C246,313 260,315 274,315C325,315 356,280 356,230C356,162 296,119 238,119C223,119 212,119 199,121z"
   id="glyph49097" />
<glyph
   unicode="В"
   horiz-adv-x="579"
   d="M15,8C49,1 104,-4 184,-4C300,-4 384,14 441,53C492,88 530,140 530,209C530,276 496,332 431,354l0,3C501,378 561,433 561,517C561,574 529,618 484,642C437,671 382,678 314,678C249,678 186,672 139,662M278,551C288,553 304,554 323,554C368,554 396,530 396,493C396,443 355,412 285,412l-33,0M227,293l30,0C317,293 360,274 360,216C360,155 304,123 238,123C221,123 208,123 195,124z"
   id="glyph49099" />
<glyph
   unicode="Г"
   horiz-adv-x="452"
   d="M142,674l-128,-674l164,0l100,527l210,0l28,147z"
   id="glyph49101" />
<glyph
   unicode="Д"
   horiz-adv-x="650"
   d="M225,674l-34,-178C179,433 160,368 135,306C111,246 80,189 47,137l-53,-6l-49,-298l128,0l44,167l319,0l-25,-167l131,0l69,298l-63,5l101,538M346,533l113,0l-74,-394l-170,0C241,184 261,226 279,272C301,329 319,391 331,453z"
   id="glyph49103" />
<glyph
   unicode="Е"
   horiz-adv-x="498"
   d="M466,415l-210,0l24,119l219,0l28,140l-385,0l-128,-674l398,0l27,140l-235,0l27,137l208,0z"
   id="glyph49105" />
<glyph
   unicode="Ё"
   horiz-adv-x="498"
   d="M466,415l-210,0l24,119l219,0l28,140l-385,0l-128,-674l398,0l27,140l-234,0l26,137l208,0M245,708C285,708 321,740 321,786C321,826 292,857 251,857C210,857 174,825 174,778C174,736 208,708 244,708M452,708C492,708 528,740 528,786C528,826 499,857 458,857C417,857 381,825 381,778C381,736 415,708 451,708z"
   id="glyph49107" />
<glyph
   unicode="Ж"
   horiz-adv-x="809"
   d="M83,674l130,-304C134,344 92,296 42,180C15,116 -10,47 -42,0l170,0C155,43 175,103 202,164C230,232 266,281 313,281l12,0l-55,-281l158,0l52,279l11,0C537,279 557,234 565,158C571,95 578,43 593,0l162,0C739,43 731,93 724,168C713,246 694,335 633,368l247,306l-182,0l-185,-282l-14,0l54,282l-155,0l-52,-281l-14,0l-80,281z"
   id="glyph49109" />
<glyph
   unicode="З"
   horiz-adv-x="496"
   d="M128,287l49,0C224,287 284,266 284,211C284,157 230,130 175,130C119,130 66,149 36,166l-48,-124C34,10 109,-9 179,-9C315,-9 453,59 453,206C453,283 403,338 338,352l1,2C420,375 484,434 484,523C484,636 388,683 284,683C198,683 129,656 89,632l30,-117C153,533 198,549 243,549C280,549 314,530 314,491C316,434 262,409 192,409l-43,0z"
   id="glyph49111" />
<glyph
   unicode="И"
   horiz-adv-x="628"
   d="M142,674l-128,-674l183,0l131,210C376,287 418,361 455,434l3,0C435,344 417,259 395,148l-30,-148l153,0l129,674l-172,0l-141,-235C295,377 248,306 199,216l-4,0C219,309 245,413 267,527l29,147z"
   id="glyph49113" />
<glyph
   unicode="Й"
   horiz-adv-x="628"
   d="M142,674l-128,-674l183,0l131,210C375,287 418,361 455,434l3,0C434,344 417,259 394,148l-29,-148l153,0l129,674l-172,0l-141,-235C295,377 248,306 199,216l-4,0C219,309 245,413 267,527l28,147M266,835C264,754 305,707 401,707C497,707 554,752 574,835l-111,0C456,802 440,776 410,776C380,776 370,802 374,835z"
   id="glyph49115" />
<glyph
   unicode="К"
   horiz-adv-x="569"
   d="M142,674l-129,-674l162,0l53,276l14,0C296,276 310,230 320,156C330,84 340,27 350,0l165,0C503,33 494,79 480,163C465,261 446,338 400,371l248,303l-196,0l-190,-279l-13,0l54,279z"
   id="glyph49117" />
<glyph
   unicode="Л"
   horiz-adv-x="620"
   d="M201,674l-57,-299C127,290 99,212 63,171C39,145 12,131 -32,126l18,-138C63,-11 118,11 161,52C235,120 270,233 300,386l30,148l119,0l-102,-534l164,0l128,674z"
   id="glyph49119" />
<glyph
   unicode="М"
   horiz-adv-x="779"
   d="M687,0l92,674l-209,0l-96,-225C448,389 413,305 389,231l-4,0C386,305 380,387 378,447l-7,227l-208,0l-169,-674l147,0l54,232C211,302 230,397 251,497l2,0C254,399 259,304 262,240l11,-226l125,0l104,227C532,307 573,401 611,497l3,0C593,390 579,302 568,232l-35,-232z"
   id="glyph49121" />
<glyph
   unicode="Н"
   horiz-adv-x="637"
   d="M143,674l-128,-674l164,0l51,270l184,0l-50,-270l164,0l128,674l-164,0l-49,-257l-185,0l49,257z"
   id="glyph49123" />
<glyph
   unicode="О"
   horiz-adv-x="654"
   d="M294,-10C386,-10 462,22 519,77C601,155 645,289 645,422C645,563 566,684 396,684C306,684 229,651 171,596C88,516 43,384 43,255C43,120 124,-10 293,-10M316,128C246,128 216,182 216,253C216,370 277,546 377,546C449,546 472,487 472,424C472,321 415,128 317,128z"
   id="glyph49125" />
<glyph
   unicode="П"
   horiz-adv-x="626"
   d="M142,674l-128,-674l164,0l102,534l174,0l-101,-534l164,0l128,674z"
   id="glyph49127" />
<glyph
   unicode="Р"
   horiz-adv-x="549"
   d="M14,0l160,0l44,232C229,231 246,229 264,229C341,229 417,248 471,289C523,330 566,397 566,490C566,550 540,601 495,632C444,670 371,678 316,678C254,678 185,672 140,661M278,545C287,547 302,548 323,548C367,548 402,528 402,476C402,422 362,362 284,362C265,362 254,363 243,365z"
   id="glyph49129" />
<glyph
   unicode="С"
   horiz-adv-x="534"
   d="M471,150C444,139 405,133 366,133C275,133 224,190 224,284C224,379 258,451 307,495C339,525 384,541 430,541C479,541 514,531 531,525l43,135C557,669 507,683 446,683C358,683 279,662 212,613C116,546 47,429 47,262C47,117 141,-9 324,-9C395,-9 446,1 477,14z"
   id="glyph49131" />
<glyph
   unicode="Т"
   horiz-adv-x="500"
   d="M118,0l164,0l100,528l155,0l28,146l-471,0l-29,-146l153,0z"
   id="glyph49133" />
<glyph
   unicode="У"
   horiz-adv-x="549"
   d="M75,674l127,-443C207,215 206,200 197,184C183,157 153,130 117,130C99,130 78,133 65,138l-24,-132C64,-4 97,-10 130,-10C189,-10 244,10 287,49C356,110 402,199 455,302l188,372l-188,0l-86,-223C351,405 338,367 324,327l-4,0C313,369 305,412 297,449l-42,225z"
   id="glyph49135" />
<glyph
   unicode="Ф"
   horiz-adv-x="746"
   d="M247,-29l149,0l12,62C556,39 732,141 732,380C732,540 628,619 524,642l10,61l-149,0l-11,-58C236,641 49,536 49,298C49,145 152,65 259,39M281,158C242,172 212,221 212,295C212,413 279,522 352,528M500,524C544,512 569,465 569,392C569,248 494,158 429,151z"
   id="glyph49137" />
<glyph
   unicode="Х"
   horiz-adv-x="528"
   d="M484,0l-106,340l223,334l-187,0l-54,-108C340,526 327,496 303,447l-2,0C293,489 287,517 277,564l-24,110l-171,0l94,-328l-228,-346l188,0l60,119C220,167 233,196 254,237l2,0C265,195 272,167 281,127l31,-127z"
   id="glyph49139" />
<glyph
   unicode="Ц"
   horiz-adv-x="642"
   d="M142,674l-128,-674l413,0l-25,-167l131,0l69,298l-63,5l102,538l-164,0l-101,-533l-172,0l102,533z"
   id="glyph49141" />
<glyph
   unicode="Ч"
   horiz-adv-x="587"
   d="M130,674l-40,-204C83,434 79,405 79,382C79,288 146,236 247,236C291,236 332,243 361,257l2,-1l-49,-256l164,0l128,674l-163,0l-55,-288C371,377 346,370 319,370C276,370 249,387 249,427C249,446 253,466 256,484l37,190z"
   id="glyph49143" />
<glyph
   unicode="Ш"
   horiz-adv-x="856"
   d="M142,674l-128,-674l733,0l128,674l-159,0l-102,-534l-127,0l101,534l-159,0l-102,-534l-127,0l101,534z"
   id="glyph49145" />
<glyph
   unicode="Щ"
   horiz-adv-x="877"
   d="M143,674l-128,-674l646,0l-24,-167l130,0l69,298l-63,5l103,538l-159,0l-102,-533l-127,0l101,533l-159,0l-102,-533l-127,0l101,533z"
   id="glyph49147" />
<glyph
   unicode="Ъ"
   horiz-adv-x="663"
   d="M91,674l-27,-145l148,0l-100,-526C144,-2 210,-7 278,-7C386,-7 500,17 567,88C605,129 629,181 629,249C629,371 547,447 417,447C395,447 373,444 355,441l46,233M331,314C340,316 354,318 370,318C424,318 454,280 454,230C454,165 394,122 333,122C319,122 308,122 295,124z"
   id="glyph49149" />
<glyph
   unicode="Ы"
   horiz-adv-x="817"
   d="M141,674l-127,-671C47,-2 112,-7 181,-7C280,-7 389,14 460,88C499,129 523,183 523,251C523,375 435,447 325,447C299,447 275,445 257,441l45,233M232,313C244,316 258,318 272,318C321,318 348,278 348,229C348,160 289,122 234,122C219,122 206,122 197,124M667,674l-129,-674l170,0l129,674z"
   id="glyph49151" />
<glyph
   unicode="Ь"
   horiz-adv-x="561"
   d="M141,674l-127,-671C46,-2 112,-7 180,-7C288,-7 402,20 469,90C507,130 531,182 531,249C531,376 443,447 323,447C298,447 274,445 256,441l45,233M232,314C243,316 258,318 271,318C325,318 356,281 356,229C356,160 293,122 235,122C221,122 210,122 197,124z"
   id="glyph49153" />
<glyph
   unicode="Э"
   horiz-adv-x="538"
   d="M97,266l236,0C313,192 249,130 152,130C109,130 68,137 32,155l-41,-130C20,10 84,-10 154,-10C266,-10 349,22 410,82C484,153 523,261 523,383C523,550 431,684 249,684C184,684 126,667 85,648l32,-124C152,537 189,545 225,545C314,545 353,473 355,410C355,406 355,402 355,399l-234,0z"
   id="glyph49155" />
<glyph
   unicode="Ю"
   horiz-adv-x="897"
   d="M143,674l-128,-674l164,0l50,272l86,0C314,260 313,248 313,236C313,122 391,-10 552,-10C640,-10 712,22 766,76C844,155 888,289 888,422C888,563 811,684 648,684C562,684 488,651 433,596C387,550 352,485 332,415l-74,0l48,259M572,127C504,127 476,182 476,253C476,370 534,547 629,547C698,547 718,486 718,423C718,320 666,127 573,127z"
   id="glyph49157" />
<glyph
   unicode="Я"
   horiz-adv-x="558"
   d="M577,663C535,672 457,679 384,679C292,679 217,663 161,622C112,587 81,532 81,467C81,377 141,330 187,317l0,-3C123,295 79,224 46,155C21,102 -3,47 -34,0l177,0C168,38 187,82 206,126C228,173 265,261 328,261l14,0l-48,-261l164,0M364,380C354,378 343,377 333,377C286,377 249,408 249,455C249,516 294,553 356,553C369,553 384,552 394,550z"
   id="glyph49159" />
<glyph
   unicode="Ґ"
   horiz-adv-x="437"
   d="M143,674l-128,-674l164,0l100,527l195,0l67,279l-124,0l-45,-132z"
   id="glyph49161" />
<glyph
   unicode="Ђ"
   horiz-adv-x="663"
   d="M94,674l-29,-145l149,0l-99,-529l162,0l56,300C344,306 362,312 377,312C429,312 447,268 447,209C447,146 425,77 390,41C365,16 335,0 300,-7l26,-143C388,-142 467,-106 524,-45C583,20 622,119 622,233C622,358 564,449 447,449C406,449 378,440 360,431l-2,0l18,98l199,0l29,145z"
   id="glyph49163" />
<glyph
   unicode="Ѓ"
   horiz-adv-x="452"
   d="M142,674l-128,-674l164,0l100,527l210,0l28,147M355,840l-99,-130l131,0l140,130z"
   id="glyph49165" />
<glyph
   unicode="Є"
   horiz-adv-x="519"
   d="M571,657C547,669 503,683 430,683C339,683 254,654 188,600C99,526 46,413 46,272C46,108 138,-10 322,-10C379,-10 446,1 476,16l-5,134C442,139 404,130 356,130C262,130 220,199 219,249C219,255 219,260 220,268l222,0l22,132l-230,0C259,489 329,542 421,543C461,544 500,536 524,525z"
   id="glyph49167" />
<glyph
   unicode="Ѕ"
   horiz-adv-x="487"
   d="M-5,33C23,14 84,-8 179,-9C323,-9 450,65 450,224C450,295 405,351 330,396C277,431 244,452 244,482C244,516 274,541 331,541C379,542 421,527 443,516l48,138C464,668 421,683 341,683C190,683 74,596 74,456C74,374 135,321 197,282C250,248 278,229 278,193C278,152 237,132 190,133C133,133 81,149 45,169z"
   id="glyph49169" />
<glyph
   unicode="І"
   horiz-adv-x="284"
   d="M139,674l-128,-674l164,0l128,674z"
   id="glyph49171" />
<glyph
   unicode="Ї"
   horiz-adv-x="284"
   d="M139,674l-128,-674l164,0l128,674M125,708C165,708 201,740 201,786C201,826 172,857 131,857C90,857 54,825 54,778C54,736 88,708 124,708M333,708C373,708 409,740 409,786C409,826 380,857 339,857C298,857 262,825 262,778C262,736 296,708 332,708z"
   id="glyph49173" />
<glyph
   unicode="Ј"
   horiz-adv-x="379"
   d="M160,242C145,162 110,135 59,135C32,135 10,139 -10,144l-29,-141C-20,-4 22,-10 60,-10C213,-10 288,56 321,230l85,444l-164,0z"
   id="glyph49175" />
<glyph
   unicode="Љ"
   horiz-adv-x="879"
   d="M202,674l-57,-298C135,323 102,209 58,165C37,143 0,128 -32,126l18,-138C58,-12 116,10 157,47C243,123 277,270 300,387l30,147l105,0l-100,-531C367,-2 434,-7 503,-7C608,-7 717,17 783,83C824,124 850,179 850,252C850,377 765,447 642,447C619,447 596,445 577,441l46,233M553,315C566,317 581,318 594,318C642,318 677,287 677,232C677,165 618,122 555,122C540,122 531,122 517,123z"
   id="glyph49177" />
<glyph
   unicode="Њ"
   horiz-adv-x="885"
   d="M143,674l-128,-674l164,0l53,284l162,0l-53,-281C373,-2 440,-7 509,-7C614,-7 723,17 789,83C830,124 856,178 856,246C856,374 765,442 649,442C626,442 603,440 582,436l46,238l-161,0l-48,-253l-160,0l48,253M558,309C569,311 585,313 598,313C645,313 683,286 683,229C683,168 623,122 561,122C546,122 536,122 523,123z"
   id="glyph49179" />
<glyph
   unicode="Ћ"
   horiz-adv-x="664"
   d="M93,674l-29,-144l147,0l-99,-530l160,0l52,275C339,292 363,309 394,309C431,309 446,284 446,257C446,231 441,205 438,186l-34,-186l162,0l33,190C605,225 611,264 612,301C613,387 576,446 480,446C427,446 384,427 350,404l-2,0l24,126l188,0l28,144z"
   id="glyph49181" />
<glyph
   unicode="Ќ"
   horiz-adv-x="569"
   d="M142,674l-129,-674l162,0l53,276l14,0C296,276 310,230 320,156C330,84 340,27 350,0l165,0C503,33 494,79 480,163C465,261 446,338 400,371l248,303l-196,0l-190,-279l-13,0l54,279M389,840l-98,-130l131,0l139,130z"
   id="glyph49183" />
<glyph
   unicode="Ў"
   horiz-adv-x="549"
   d="M74,674l127,-443C207,215 206,200 196,184C182,157 153,130 117,130C99,130 78,133 64,138l-24,-132C63,-4 96,-10 130,-10C189,-10 244,10 287,49C356,110 402,199 454,302l189,372l-189,0l-86,-223C350,405 338,367 324,327l-5,0C313,369 305,412 296,449l-42,225M228,838C226,757 267,710 363,710C459,710 516,755 536,838l-111,0C418,805 402,779 372,779C342,779 332,805 336,838z"
   id="glyph49185" />
<glyph
   unicode=""
   horiz-adv-x="267"
   d="M167,0l93,492l-164,0l-93,-492M90,664l-17,-82l243,0l17,82z"
   id="glyph49187" />
<glyph
   unicode="а"
   horiz-adv-x="531"
   d="M454,0C453,61 463,161 473,215l51,261C484,490 420,502 359,502C115,502 21,317 21,158C21,58 76,-10 162,-10C210,-10 267,14 308,83l3,0C310,55 309,28 307,0M320,262C301,155 264,122 233,122C204,122 189,148 189,190C189,258 237,380 314,380C321,380 331,379 342,377z"
   id="glyph49189" />
<glyph
   unicode="б"
   horiz-adv-x="537"
   d="M551,714C525,705 486,700 445,696C336,688 250,666 171,589C83,501 40,369 40,225C40,70 115,-10 234,-10C404,-10 510,140 512,300C513,401 461,492 351,492C289,492 238,459 201,405l-5,0C204,434 226,477 255,503C309,551 373,558 434,563C465,566 500,569 528,578M252,110C215,110 199,151 199,194C199,246 213,296 238,333C252,357 271,372 292,372C333,372 345,323 345,288C345,226 318,110 253,110z"
   id="glyph49191" />
<glyph
   unicode="в"
   horiz-adv-x="524"
   d="M311,502C250,502 198,488 156,459C66,397 28,238 28,145C28,47 84,-9 218,-9C330,-9 477,32 477,163C477,222 428,255 382,260l0,2C433,277 492,313 492,381C492,466 419,502 312,502M297,391C322,391 338,378 338,360C338,341 322,327 303,319C275,306 242,300 212,294C223,338 246,391 296,391M259,202C287,202 314,193 314,160C314,128 284,104 237,104C198,104 187,126 187,150C187,163 190,179 192,189C209,196 236,202 258,202z"
   id="glyph49193" />
<glyph
   unicode="г"
   horiz-adv-x="416"
   d="M97,360C124,371 167,383 206,383C233,383 251,375 251,360C251,344 220,328 174,306C89,267 0,228 0,126C0,36 71,-9 179,-9C241,-9 304,6 349,29l-15,114C302,127 255,109 206,109C179,109 167,117 167,131C167,151 200,170 249,194C336,234 408,280 408,364C408,450 349,502 243,502C183,502 124,488 83,469z"
   id="glyph49195" />
<glyph
   unicode="д"
   horiz-adv-x="543"
   d="M137,580C169,573 197,572 226,569C276,566 322,559 352,534C385,511 396,473 395,444C395,440 395,432 394,424l-3,0C371,466 337,492 280,492C129,492 24,334 24,188C24,65 96,-10 215,-10C442,-10 524,223 524,413C524,514 503,603 432,649C391,679 336,694 271,701C231,705 176,703 137,714M241,111C205,111 191,143 191,184C190,259 228,369 293,369C333,369 344,326 343,289C342,233 308,111 242,111z"
   id="glyph49197" />
<glyph
   unicode="е"
   horiz-adv-x="487"
   d="M407,145C367,126 325,117 277,117C240,117 213,127 196,142C186,152 181,164 179,176C363,170 474,221 474,349C474,441 404,502 303,502C124,502 24,345 24,196C24,68 95,-9 235,-9C288,-9 355,-2 415,26M324,345C324,311 285,293 194,295C200,335 230,381 284,381C310,381 324,366 324,346z"
   id="glyph49199" />
<glyph
   unicode="ё"
   horiz-adv-x="487"
   d="M407,145C367,126 325,117 277,117C240,117 213,127 196,142C186,152 181,164 179,176C363,170 474,221 474,349C473,441 404,502 303,502C124,502 24,345 24,196C24,68 95,-9 234,-9C288,-9 355,-2 415,26M324,345C324,311 285,293 194,295C200,335 229,381 283,381C310,381 324,366 324,346M220,548C264,548 299,579 299,629C299,672 270,703 227,703C183,703 147,671 147,622C147,576 181,548 219,548M425,548C469,548 504,579 504,629C504,672 475,703 432,703C388,703 352,671 352,622C352,576 386,548 424,548z"
   id="glyph49201" />
<glyph
   unicode="ж"
   horiz-adv-x="732"
   d="M52,492l106,-217C96,266 49,199 19,132C-2,83 -17,40 -41,0l161,0C140,33 155,73 174,116C196,167 222,201 265,201l11,0l-39,-201l155,0l37,201l14,0C489,201 495,144 501,103C505,74 510,26 519,0l159,0C667,34 659,88 654,126C646,181 626,256 584,274l188,218l-180,0l-136,-201l-12,0l41,201l-156,0l-36,-201l-12,0l-54,201z"
   id="glyph49203" />
<glyph
   unicode="з"
   horiz-adv-x="455"
   d="M96,201l54,0C202,201 237,188 237,156C237,124 195,110 153,110C105,110 55,126 21,146l-40,-107C32,6 100,-8 171,-8C273,-8 407,27 407,145C407,212 355,247 304,257l0,1C365,272 422,308 422,373C422,475 315,501 233,501C169,501 103,484 53,458l28,-99C112,374 156,387 192,387C228,387 254,373 254,347C254,315 208,305 162,305l-51,0z"
   id="glyph49205" />
<glyph
   unicode="и"
   horiz-adv-x="540"
   d="M95,492l-52,-272C36,183 32,150 32,120C32,40 68,-10 148,-10C202,-10 256,12 304,71l2,0l-6,-71l142,0C450,47 458,103 470,164l62,328l-164,0l-44,-238C307,169 272,122 235,122C210,122 201,141 201,163C201,182 204,207 209,231l49,261z"
   id="glyph49207" />
<glyph
   unicode="й"
   horiz-adv-x="540"
   d="M95,492l-52,-272C36,183 32,150 32,120C32,40 68,-10 148,-10C202,-10 256,12 304,71l2,0l-6,-71l142,0C450,47 458,103 470,164l62,328l-164,0l-44,-238C308,169 273,122 236,122C211,122 201,141 201,163C201,182 205,207 209,231l50,261M215,691C211,607 251,557 336,557C421,557 477,602 494,691l-100,0C386,655 371,628 346,628C320,628 310,652 314,691z"
   id="glyph49209" />
<glyph
   unicode="к"
   horiz-adv-x="502"
   d="M97,492l-94,-492l160,0l38,198l11,0C247,198 260,167 268,116C274,75 280,22 289,0l160,0C438,31 429,79 424,125C416,197 397,251 358,271l197,221l-189,0l-138,-201l-10,0l38,201z"
   id="glyph49211" />
<glyph
   unicode="л"
   horiz-adv-x="533"
   d="M138,492l-40,-212C87,224 69,177 46,153C29,134 6,123 -25,120l10,-129C60,-9 109,14 146,51C195,97 223,161 247,281l17,86l77,0l-69,-367l163,0l93,492z"
   id="glyph49213" />
<glyph
   unicode="м"
   horiz-adv-x="692"
   d="M123,492l-131,-492l140,0l42,171C183,208 198,279 210,337l3,0C215,285 217,227 220,178l9,-168l127,0l82,173C465,240 487,289 506,336l4,0C500,282 488,211 482,173l-28,-173l151,0l63,492l-202,0l-75,-158C371,292 348,241 337,213l-3,0C334,256 332,298 331,326l-7,166z"
   id="glyph49215" />
<glyph
   unicode="н"
   horiz-adv-x="537"
   d="M95,492l-92,-492l164,0l36,190l107,0l-36,-190l164,0l93,492l-164,0l-34,-177l-108,0l34,177z"
   id="glyph49217" />
<glyph
   unicode="о"
   horiz-adv-x="534"
   d="M225,-10C389,-10 507,124 507,307C507,409 443,502 310,502C139,502 24,359 24,184C24,75 95,-10 224,-10M244,114C207,114 191,146 191,188C190,254 223,378 287,378C326,378 340,348 340,312C340,236 308,114 245,114z"
   id="glyph49219" />
<glyph
   unicode="п"
   horiz-adv-x="542"
   d="M167,0l43,223C229,323 268,370 304,370C329,370 337,352 337,326C337,310 335,293 332,277l-52,-277l163,0l55,286C502,313 507,350 507,374C507,448 473,502 388,502C329,502 274,477 231,422l-2,0l7,70l-143,0C86,445 77,389 66,328l-62,-328z"
   id="glyph49221" />
<glyph
   unicode="р"
   horiz-adv-x="544"
   d="M129,-196l39,203l2,0C186,-3 217,-10 248,-10C412,-10 516,152 516,321C516,418 473,502 370,502C318,502 265,476 229,428l-2,0l7,67l-144,0C84,444 72,363 62,307l-96,-503M213,249C224,319 259,368 301,368C336,368 346,336 346,304C346,224 302,112 239,112C218,112 204,119 192,130z"
   id="glyph49223" />
<glyph
   unicode="с"
   horiz-adv-x="402"
   d="M350,137C328,129 303,122 269,122C229,122 192,149 192,208C192,297 249,370 332,370C353,370 369,367 385,362l39,126C402,496 372,501 334,501C155,501 22,370 22,189C22,66 104,-9 221,-9C273,-9 317,-1 345,12z"
   id="glyph49225" />
<glyph
   unicode="т"
   horiz-adv-x="793"
   d="M163,0l41,224C221,317 260,371 296,371C318,371 327,353 327,327C327,309 324,289 320,268l-50,-268l157,0l43,224C488,319 523,371 559,371C582,371 593,354 593,330C593,311 590,290 586,268l-50,-268l160,0l53,285C754,314 759,355 759,375C759,451 724,502 646,502C587,502 530,475 490,420C485,458 452,502 383,502C322,502 267,477 226,420l-2,0l6,72l-139,0C84,445 76,389 64,328l-61,-328z"
   id="glyph49227" />
<glyph
   unicode="у"
   horiz-adv-x="485"
   d="M43,492l83,-446C128,35 127,30 124,23C110,-3 85,-28 54,-49C30,-65 2,-77 -21,-85l43,-138C53,-217 114,-193 164,-147C230,-85 280,-13 348,119C408,238 479,407 519,492l-170,0l-69,-199C261,239 251,209 242,177l-2,0C238,206 235,241 230,289l-15,203z"
   id="glyph49229" />
<glyph
   unicode="ф"
   horiz-adv-x="720"
   d="M199,-196l152,0l39,219l2,0C406,2 434,-10 465,-10C600,-10 696,145 696,319C696,413 659,502 569,502C529,502 495,482 475,461l-2,0l49,244l-148,0l-45,-238l-2,0C317,483 294,502 259,502C117,502 23,330 23,172C23,46 81,-10 145,-10C185,-10 218,3 239,26l2,0M279,377C295,377 303,364 304,353C304,341 303,329 299,313l-28,-143C265,145 247,122 222,122C199,122 184,146 184,188C184,266 227,377 278,377M499,368C526,368 536,333 536,299C536,227 502,143 467,126C450,118 438,119 431,122C422,125 418,137 420,153C423,183 429,214 435,242C441,276 448,305 456,333C463,351 477,368 498,368z"
   id="glyph49231" />
<glyph
   unicode="х"
   horiz-adv-x="476"
   d="M40,492l100,-239l-196,-253l183,0l41,74C189,112 200,136 211,157l3,0C220,127 226,104 237,68l20,-68l177,0l-99,251l193,241l-182,0l-39,-72C289,391 275,366 261,342l-3,0C254,359 248,383 235,426l-17,66z"
   id="glyph49233" />
<glyph
   unicode="ц"
   horiz-adv-x="562"
   d="M95,492l-52,-272C36,183 32,150 32,121C32,41 76,-10 159,-10C223,-10 286,20 332,81l2,0C336,62 341,46 349,33C359,17 374,7 385,2l-43,-158l115,0l83,244C490,89 471,110 471,152C471,175 477,202 482,227l50,265l-163,0l-45,-238C308,169 273,122 235,122C210,122 201,141 201,163C201,182 204,207 209,231l50,261z"
   id="glyph49235" />
<glyph
   unicode="ч"
   horiz-adv-x="524"
   d="M85,492l-27,-133C53,334 48,302 48,282C48,210 92,157 193,157C237,157 274,167 297,181l2,0l-37,-181l163,0l94,492l-163,0l-37,-198C304,282 285,275 264,275C231,275 217,295 217,318C217,333 220,349 223,362l25,130z"
   id="glyph49237" />
<glyph
   unicode="ш"
   horiz-adv-x="795"
   d="M95,492l-53,-285C37,178 32,137 32,117C32,41 67,-10 145,-10C204,-10 261,17 301,72C306,34 339,-10 408,-10C469,-10 528,17 569,74l1,0C569,50 568,25 567,0l144,0C712,42 717,111 727,167l61,325l-159,0l-41,-224C571,175 532,121 496,121C473,121 464,139 464,165C464,183 467,203 471,224l51,268l-158,0l-43,-224C303,173 268,121 232,121C209,121 198,138 198,162C198,181 201,202 205,224l50,268z"
   id="glyph49239" />
<glyph
   unicode="щ"
   horiz-adv-x="819"
   d="M95,492l-53,-285C37,178 32,137 32,117C32,41 67,-10 145,-10C204,-10 261,17 301,72C306,34 340,-10 410,-10C476,-10 541,23 582,81l3,0C589,45 615,10 642,2l-43,-158l115,0l83,244C749,89 728,108 728,150C728,174 739,226 743,246l45,246l-159,0l-41,-224C571,175 531,121 495,121C473,121 464,139 464,165C464,183 467,203 471,224l50,268l-157,0l-43,-224C302,173 268,121 232,121C209,121 198,138 198,162C198,181 201,202 205,224l50,268z"
   id="glyph49241" />
<glyph
   unicode="ъ"
   horiz-adv-x="580"
   d="M56,492l-24,-126l151,0C136,300 92,210 92,135C92,12 188,-9 275,-9C452,-9 543,114 543,218C543,305 485,354 407,354C358,354 319,342 289,318l-1,0C313,376 349,434 389,492M299,110C269,110 255,130 255,153C255,165 258,176 263,187C271,207 297,235 334,235C363,235 382,219 382,186C382,141 341,110 300,110z"
   id="glyph49243" />
<glyph
   unicode="ы"
   horiz-adv-x="745"
   d="M105,492l-62,-274C36,188 28,143 28,114C28,6 125,-9 201,-9C387,-9 470,115 470,220C470,305 417,354 341,354C299,354 252,342 221,318l-1,0l46,174M233,110C204,110 191,127 191,149C191,163 193,171 196,181C203,202 229,235 266,235C290,235 309,220 309,189C309,140 269,110 234,110M570,492l-94,-492l169,0l94,492z"
   id="glyph49245" />
<glyph
   unicode="ь"
   horiz-adv-x="516"
   d="M106,492l-62,-274C37,188 28,145 28,118C28,6 127,-9 203,-9C394,-9 480,110 480,218C480,305 418,354 341,354C300,354 252,342 222,318l-1,1l45,173M236,110C206,110 192,127 192,150C192,165 193,169 197,182C205,202 231,235 273,235C299,235 320,219 320,186C320,139 274,110 237,110z"
   id="glyph49247" />
<glyph
   unicode="э"
   horiz-adv-x="456"
   d="M80,190l171,0C235,141 186,116 129,116C86,116 51,124 23,137l-38,-113C22,3 65,-7 126,-9C316,-9 424,106 424,271C424,406 349,502 196,502C144,502 97,492 56,476l25,-113C104,373 138,379 170,379C233,379 265,343 265,302C265,300 265,298 265,296l-166,0z"
   id="glyph49249" />
<glyph
   unicode="ю"
   horiz-adv-x="741"
   d="M95,492l-92,-492l164,0l36,195l58,0C261,187 260,179 260,172C260,65 331,-10 446,-10C602,-10 716,124 716,303C716,409 651,502 527,502C409,502 317,423 278,311l-53,0l34,181M464,114C429,114 417,146 417,188C416,254 450,378 507,378C539,378 552,348 552,312C552,236 520,114 465,114z"
   id="glyph49251" />
<glyph
   unicode="я"
   horiz-adv-x="523"
   d="M518,490C471,497 407,501 338,501C222,501 55,485 55,335C55,275 108,237 143,228l0,-2C99,215 63,182 34,125C11,82 -7,43 -36,0l175,0C160,30 176,66 192,98C215,144 242,177 280,177l17,0l-34,-177l161,0M317,282l-26,0C253,282 220,297 220,335C220,372 252,390 297,390C316,390 325,389 337,387z"
   id="glyph49253" />
<glyph
   unicode="ґ"
   horiz-adv-x="397"
   d="M96,492l-93,-492l164,0l69,365l156,0l57,244l-120,0l-42,-117z"
   id="glyph49255" />
<glyph
   unicode="ђ"
   horiz-adv-x="550"
   d="M137,705l-11,-57l-51,0l-21,-102l52,0l-102,-546l164,0l46,241C229,318 258,359 294,359C335,359 345,311 345,261C345,181 318,104 283,56C252,16 223,-2 188,-9l28,-134C278,-137 362,-95 411,-34C481,52 517,168 517,294C517,395 477,493 369,493C323,493 283,474 252,444l-2,0l19,102l208,0l19,102l-208,0l11,57z"
   id="glyph49257" />
<glyph
   unicode="ѓ"
   horiz-adv-x="416"
   d="M97,360C124,371 167,383 206,383C233,383 251,375 251,360C251,344 220,328 174,306C89,267 0,228 0,126C0,36 71,-9 179,-9C241,-9 304,6 349,29l-15,114C302,127 255,109 206,109C179,109 167,117 167,131C167,151 200,170 249,194C336,234 408,280 408,364C408,450 349,502 243,502C183,502 124,488 83,469M291,701l-92,-151l117,0l127,151z"
   id="glyph49259" />
<glyph
   unicode="є"
   horiz-adv-x="420"
   d="M442,479C421,490 375,502 324,502C240,502 161,473 107,420C55,369 25,295 25,208C25,73 116,-10 245,-10C295,-10 347,-2 383,16l-10,116C350,123 317,116 287,116C235,116 197,141 191,186C191,188 190,190 190,192l162,0l17,105l-163,0C224,350 270,380 327,380C361,380 388,372 404,363z"
   id="glyph49261" />
<glyph
   unicode="ѕ"
   horiz-adv-x="404"
   d="M-10,26C18,7 75,-8 135,-9C271,-11 365,53 365,167C365,229 316,271 260,302C227,319 210,333 210,348C210,371 232,383 266,383C304,383 336,373 356,364l36,114C368,491 325,502 267,502C136,502 46,431 46,327C46,269 88,228 142,198C183,176 197,162 197,143C197,124 182,109 149,109C103,108 55,126 28,140z"
   id="glyph49263" />
<glyph
   unicode="і"
   horiz-adv-x="269"
   d="M167,0l93,492l-163,0l-94,-492M196,547C249,547 297,583 297,647C297,697 264,731 212,731C157,731 114,687 114,632C114,581 146,547 195,547z"
   id="glyph49265" />
<glyph
   unicode="ї"
   horiz-adv-x="267"
   d="M167,0l94,492l-164,0l-94,-492M100,548C144,548 179,579 179,629C179,672 150,703 107,703C63,703 27,671 27,622C27,576 61,548 99,548M305,548C349,548 384,579 384,629C384,672 355,703 312,703C268,703 232,671 232,622C232,576 266,548 304,548z"
   id="glyph49267" />
<glyph
   unicode="ј"
   horiz-adv-x="274"
   d="M109,492l-88,-467C4,-62 -21,-78 -53,-78C-63,-78 -71,-78 -81,-76l-17,-123C-75,-204 -50,-206 -28,-206C33,-206 88,-185 119,-144C149,-108 169,-57 185,31l87,461M204,547C257,547 305,583 305,647C305,697 272,731 220,731C165,731 122,687 122,632C122,581 154,547 203,547z"
   id="glyph49269" />
<glyph
   unicode="љ"
   horiz-adv-x="774"
   d="M128,492l-40,-212C77,224 58,178 36,153C19,134 -2,123 -24,120l10,-129C50,-9 99,12 136,49C185,95 213,161 237,281l17,86l78,0l-31,-148C295,189 286,148 286,117C286,6 381,-9 457,-9C656,-9 738,115 738,218C738,305 676,354 598,354C557,354 511,343 481,319l-2,0l36,173M494,110C464,110 450,127 450,151C450,163 451,167 455,180C462,202 489,235 529,235C557,235 578,219 578,186C578,139 532,110 495,110z"
   id="glyph49271" />
<glyph
   unicode="њ"
   horiz-adv-x="774"
   d="M95,492l-91,-492l164,0l36,195l94,0l-4,-26C291,150 288,128 288,112C288,6 386,-9 456,-9C655,-9 738,115 738,218C738,305 676,354 599,354C557,354 511,342 482,318l-2,0l37,174l-160,0l-35,-176l-96,0l34,176M494,110C468,110 451,127 451,149C451,165 453,169 456,182C463,202 489,235 531,235C557,235 578,219 578,186C578,139 536,110 495,110z"
   id="glyph49273" />
<glyph
   unicode="ћ"
   horiz-adv-x="545"
   d="M141,705l-11,-61l-70,0l-20,-99l71,0l-103,-545l163,0l45,235C233,322 270,370 307,370C332,370 341,353 341,328C341,312 339,289 335,269l-51,-269l163,0l54,280C506,313 511,351 511,374C511,450 475,502 397,502C338,502 292,474 256,437l-2,0l20,108l176,0l21,99l-178,0l12,61z"
   id="glyph49275" />
<glyph
   unicode="ќ"
   horiz-adv-x="502"
   d="M97,492l-94,-492l160,0l38,198l11,0C247,198 260,167 268,116C274,75 280,22 289,0l160,0C438,31 429,79 424,125C416,197 397,251 358,271l197,221l-189,0l-138,-201l-10,0l38,201M331,701l-92,-151l116,0l128,151z"
   id="glyph49277" />
<glyph
   unicode="ў"
   horiz-adv-x="485"
   d="M42,492l84,-446C128,35 127,30 124,23C110,-3 85,-28 54,-49C30,-65 2,-77 -21,-85l43,-138C53,-217 114,-193 164,-147C230,-85 280,-13 348,119C408,238 479,407 519,492l-170,0l-69,-199C261,239 251,209 242,177l-2,0C238,206 235,241 230,289l-15,203M173,691C169,607 209,557 294,557C379,557 435,602 452,691l-100,0C344,655 329,628 304,628C278,628 268,652 272,691z"
   id="glyph49279" />
<glyph
   unicode="Џ"
   horiz-adv-x="621"
   d="M142,674l-127,-674l179,0l-29,-185l130,0l44,185l175,0l127,674l-164,0l-101,-534l-171,0l101,534z"
   id="glyph49281" />
<glyph
   unicode=""
   horiz-adv-x="536"
   d="M7,-179C37,-195 96,-206 155,-206C227,-206 297,-191 349,-149C406,-102 434,-23 449,60l74,408C472,490 414,502 343,502C131,502 22,330 24,171C25,79 79,5 169,5C219,5 256,24 291,66l2,0l-7,-35C271,-45 226,-78 158,-78C124,-78 69,-69 44,-55M321,236C309,173 277,130 242,130C211,130 194,159 194,201C194,280 245,377 313,377C325,377 339,376 347,372z"
   id="glyph49283" />
<glyph
   unicode="џ"
   horiz-adv-x="540"
   d="M95,492l-52,-272C36,183 32,150 32,120C32,40 68,-10 148,-10C197,-10 256,12 304,71l2,-1l-6,-70l142,0C450,47 458,103 470,164l62,328l-164,0l-44,-238C307,169 272,122 235,122C210,122 201,141 201,163C201,182 204,207 209,231l49,261M243,-191l49,155l-136,-10l-36,-163z"
   id="glyph49285" />
<glyph
   unicode=""
   horiz-adv-x="540"
   d="M368,492l-44,-238C307,169 272,122 235,122C210,122 201,141 201,163C201,182 204,207 209,231l49,261l-163,0l-52,-272C36,183 32,150 32,120C32,40 68,-10 148,-10C202,-10 256,12 304,71l2,-1l-6,-70l142,0C450,47 458,103 470,164l62,328M139,664l-16,-82l411,0l17,82z"
   id="glyph49287" />
<glyph
   unicode=""
   horiz-adv-x="795"
   d="M95,492l-53,-285C37,178 32,137 32,117C32,41 67,-10 145,-10C204,-10 261,17 301,72C306,34 339,-10 408,-10C469,-10 528,17 569,74l1,0C569,50 568,25 567,0l144,0C712,42 717,111 727,167l61,325l-159,0l-41,-224C571,175 532,121 496,121C473,121 464,139 464,165C464,183 467,203 471,224l51,268l-158,0l-43,-224C303,173 268,121 232,121C209,121 198,138 198,162C198,181 201,202 205,224l50,268M142,664l-16,-82l654,0l17,82z"
   id="glyph49289" />
<glyph
   unicode="ә"
   horiz-adv-x="488"
   d="M85,347C118,363 163,376 210,376C244,376 274,367 292,348C299,339 304,328 306,317C122,323 11,271 11,144C11,50 82,-9 184,-9C364,-9 461,142 461,293C461,424 391,502 250,502C197,502 124,491 66,461M202,112C176,112 161,127 161,148C161,182 200,200 291,198C285,158 256,112 203,112z"
   id="glyph49291" />
<glyph
   unicode="ℓ"
   horiz-adv-x="531"
   d="M293,473C310,564 329,594 350,594C365,594 370,579 370,556C370,497 325,432 275,381M410,197C375,162 336,130 296,130C257,130 235,156 244,206l4,21C358,311 490,416 490,565C490,653 444,710 355,710C253,710 168,633 138,467l-39,-215C70,232 39,213 7,192l31,-85C52,114 66,123 82,133l1,-5C87,42 142,-12 239,-12C327,-12 406,21 471,121z"
   id="glyph49293" />
<glyph
   unicode="№"
   horiz-adv-x="893"
   d="M710,287C828,287 906,384 906,504C906,581 859,635 776,635C654,635 574,533 574,416C574,332 631,287 709,287M836,251l-272,0l-16,-81l273,0M576,650l-139,0l-26,-134C391,408 376,302 368,232l-2,0C358,296 348,380 338,437l-31,213l-168,0l-125,-650l139,0l27,139C201,253 217,355 229,429l2,0C239,363 247,277 257,217l34,-217l160,0M723,371C705,371 695,389 696,416C696,453 716,551 757,551C776,551 784,534 784,505C784,472 768,371 724,371z"
   id="glyph49295" />
<glyph
   unicode="à"
   horiz-adv-x="531"
   d="M451,0C450,61 460,161 470,215l53,261C482,490 418,502 357,502C114,502 20,317 20,158C20,58 75,-10 161,-10C209,-10 266,14 305,83l3,0C307,55 306,28 304,0M318,262C298,155 262,122 232,122C203,122 188,148 188,190C188,258 236,380 312,380C319,380 330,379 341,377M189,701l102,-151l114,0l-67,151z"
   id="glyph49297" />
<glyph
   unicode="α"
   horiz-adv-x="550"
   d="M333,69C342,21 371,-10 425,-10C449,-10 462,-7 474,-2l31,119C480,116 463,126 473,178C485,240 500,308 514,376C521,408 533,457 543,492l-136,0C399,475 392,458 386,442l-4,0C362,484 326,502 268,502C166,502 24,374 24,169C24,59 88,-10 179,-10C236,-10 288,14 330,69M190,188C190,270 232,377 286,377C317,377 334,350 334,307C334,297 330,270 326,249C322,226 316,202 310,187C299,154 271,119 238,119C209,119 190,143 190,187z"
   id="glyph49299" />
<glyph
   unicode="ά"
   horiz-adv-x="550"
   d="M363,701l-93,-151l112,0l127,151M333,69C342,21 371,-10 425,-10C449,-10 462,-7 474,-2l31,119C480,116 463,126 473,178C485,240 500,307 514,375C521,408 533,457 543,492l-136,0C399,475 392,458 386,442l-4,0C362,484 326,502 268,502C166,502 24,374 24,169C24,59 88,-10 179,-10C236,-10 288,14 330,69M190,188C190,270 232,377 286,377C317,377 334,350 334,307C334,297 330,270 326,249C322,226 316,202 310,187C299,154 271,119 238,119C209,119 190,143 190,187z"
   id="glyph49301" />
<glyph
   unicode="ā"
   horiz-adv-x="531"
   d="M451,0C450,61 460,161 470,215l53,261C482,490 418,502 357,502C114,502 20,317 20,158C20,58 75,-10 161,-10C209,-10 266,14 305,83l3,0C307,55 306,28 304,0M318,262C298,155 262,122 232,122C203,122 188,148 188,190C188,258 236,380 312,380C319,380 330,379 341,377M233,667l-18,-85l243,0l18,85z"
   id="glyph49303" />
<glyph
   unicode="&amp;"
   horiz-adv-x="652"
   d="M599,0C563,45 529,92 505,128C580,196 628,285 660,385l-144,0C499,334 476,276 437,230C416,259 385,304 363,340l0,3C474,398 526,458 526,531C526,618 459,684 350,684C227,684 133,604 133,488C133,450 146,414 168,375l0,-3C81,330 10,268 10,166C10,60 91,-10 214,-10C292,-10 344,13 383,38C392,25 400,13 412,0M260,111C204,111 174,149 174,194C174,234 198,264 221,282C252,230 292,172 322,131C308,120 289,111 261,111M337,580C369,580 382,558 382,532C382,487 345,450 304,429C289,449 279,473 279,502C279,545 304,580 336,580z"
   id="glyph49305" />
<glyph
   unicode="·"
   horiz-adv-x="277"
   d="M135,205C199,205 248,251 248,322C248,381 210,421 152,421C88,421 41,365 41,303C41,246 77,205 134,205z"
   id="glyph49307" />
<glyph
   unicode="ą"
   horiz-adv-x="531"
   d="M524,476C484,490 420,502 359,502C115,502 21,317 21,158C21,58 76,-10 162,-10C210,-10 267,14 308,83l3,0C310,56 309,29 307,2C287,-25 253,-75 253,-125C253,-187 291,-220 357,-220C395,-220 437,-210 467,-185l-11,79C446,-109 427,-114 405,-114C383,-114 369,-102 369,-82C369,-59 387,-24 409,0l45,0C453,61 463,161 473,215M320,262C301,155 264,122 233,122C204,122 189,148 189,190C189,258 237,380 314,380C321,380 331,379 342,377z"
   id="glyph49309" />
<glyph
   unicode="≈"
   horiz-adv-x="596"
   d="M520,438C500,416 463,376 413,376C366,376 335,397 305,410C273,425 238,446 183,446C110,446 53,401 17,353l53,-72C95,309 132,343 181,343C229,343 261,322 291,309C323,294 359,273 414,273C484,273 542,316 578,370M523,221C501,194 464,159 413,159C367,159 335,180 305,193C273,208 238,229 182,229C113,229 53,186 18,137l53,-73C95,92 134,126 180,126C230,126 261,105 291,92C323,77 360,56 413,56C483,56 543,99 579,156z"
   id="glyph49311" />
<glyph
   unicode="å"
   horiz-adv-x="531"
   d="M451,0C450,61 460,161 470,215l53,261C482,490 418,502 357,502C114,502 20,317 20,158C20,58 75,-10 161,-10C209,-10 266,14 305,83l3,0C307,55 306,28 304,0M318,262C298,155 262,122 232,122C203,122 188,148 188,190C188,258 236,380 312,380C319,380 330,379 341,377M347,737C273,737 223,694 225,631C227,575 273,540 334,540C404,540 455,579 457,643C457,704 410,737 348,737M343,684C373,684 384,662 384,640C384,617 369,593 338,593C310,593 298,615 298,635C298,660 313,684 342,684z"
   id="glyph49313" />
<glyph
   unicode="^"
   horiz-adv-x="596"
   d="M551,172l-212,478l-102,0l-212,-478l120,0l140,345l4,0l140,-345z"
   id="glyph49315" />
<glyph
   unicode="~"
   horiz-adv-x="596"
   d="M150,186C154,234 162,268 193,268C213,268 247,246 267,233C325,195 365,176 417,176C500,176 559,230 554,375l-106,0C445,313 432,294 411,294C392,294 373,307 330,333C278,365 243,383 191,383C112,383 44,334 44,186z"
   id="glyph49317" />
<glyph
   unicode="*"
   horiz-adv-x="442"
   d="M337,684l-65,-155l-2,0l-36,155l-107,-55l95,-125l-1,-3l-143,38l-22,-118l160,36l1,-2l-125,-121l93,-60l67,156l3,2l36,-158l108,56l-100,122l1,3l149,-34l22,118l-162,-38l-1,3l124,123z"
   id="glyph49319" />
<glyph
   unicode="@"
   horiz-adv-x="722"
   d="M406,243C398,191 369,153 341,153C314,153 302,174 302,208C302,285 347,344 397,344C405,344 413,343 420,341M499,-7C459,-28 406,-39 359,-39C220,-39 117,49 117,218C117,409 248,530 391,530C542,530 617,429 617,305C617,185 569,134 530,135C503,136 496,161 505,218l29,184C510,416 459,427 416,427C277,427 192,319 192,195C192,114 235,65 299,65C348,65 391,94 418,142l2,0C426,92 456,65 508,65C617,65 692,158 692,309C692,467 578,592 402,592C184,592 40,410 40,211C40,13 184,-102 338,-102C407,-102 457,-93 517,-66z"
   id="glyph49321" />
<glyph
   unicode="ã"
   horiz-adv-x="531"
   d="M451,0C450,61 460,161 470,215l53,261C482,490 418,502 357,502C114,502 20,317 20,158C20,58 75,-10 161,-10C209,-10 266,14 305,83l3,0C307,55 306,28 304,0M318,262C298,155 262,122 232,122C203,122 188,148 188,190C188,258 236,380 312,380C319,380 330,379 341,377M269,556C274,583 284,601 294,601C304,601 315,595 329,583C344,573 365,564 391,564C442,564 477,600 491,694l-74,0C407,659 401,650 387,650C378,650 366,660 352,670C336,679 319,689 291,689C238,689 204,639 192,556z"
   id="glyph49323" />
<glyph
   unicode="b"
   horiz-adv-x="540"
   d="M137,705l-98,-492C33,186 28,156 28,124C28,40 80,-10 199,-10C413,-10 517,167 517,341C517,416 480,502 382,502C326,502 279,477 248,441l-2,0l54,264M212,262C224,325 261,368 301,368C334,368 346,339 346,299C346,227 299,111 236,111C211,111 196,127 195,156C194,174 197,191 200,207z"
   id="glyph49325" />
<glyph
   unicode="\"
   horiz-adv-x="323"
   d="M299,-40l-138,724l-109,0l138,-724z"
   id="glyph49327" />
<glyph
   unicode="|"
   horiz-adv-x="244"
   d="M84,750l0,-1000l109,0l0,1000z"
   id="glyph49329" />
<glyph
   unicode="β"
   horiz-adv-x="545"
   d="M136,-196C135,-154 144,-87 157,-21l9,49l3,0C197,3 245,-10 293,-10C408,-10 512,91 512,222C512,299 472,358 423,376l1,5C485,412 527,472 527,553C527,638 466,715 351,715C285,715 234,693 191,656C142,613 102,546 74,396l-75,-396C-19,-92 -24,-173 -14,-196M267,306C274,306 280,306 287,305C321,298 346,269 346,225C346,166 310,116 259,116C232,116 205,129 188,154l55,287C264,555 295,587 330,587C360,587 374,559 374,525C374,461 339,422 302,413C297,411 292,411 287,411z"
   id="glyph49331" />
<glyph
   unicode="{"
   horiz-adv-x="307"
   d="M23,242C65,241 85,226 85,197C85,177 74,144 63,107C52,70 40,30 40,-6C40,-82 88,-112 174,-112l32,0l18,95l-16,0C179,-17 164,-3 164,24C164,44 173,77 183,112C192,147 202,183 202,208C202,245 179,276 138,287l0,2C196,303 231,336 242,410C249,455 250,490 257,525C266,563 285,590 323,591l17,0l18,95l-39,0C220,686 160,641 142,545C132,495 132,440 123,393C117,367 104,335 40,333z"
   id="glyph49333" />
<glyph
   unicode="}"
   horiz-adv-x="307"
   d="M299,332C257,333 238,348 238,377C238,398 249,431 261,468C272,505 283,545 283,580C283,656 235,686 149,686l-33,0l-17,-95l16,0C144,591 159,577 159,550C159,530 150,497 141,462C132,427 122,391 121,366C121,329 144,298 185,287l0,-2C127,271 92,238 81,164C74,119 73,84 66,49C57,11 38,-16 0,-17l-17,0l-18,-95l39,0C103,-112 163,-67 181,29C191,79 191,134 200,181C206,207 219,239 282,241z"
   id="glyph49335" />
<glyph
   unicode="["
   horiz-adv-x="307"
   d="M191,-112l18,95l-86,0l116,608l85,0l19,95l-206,0l-152,-798z"
   id="glyph49337" />
<glyph
   unicode="]"
   horiz-adv-x="307"
   d="M125,686l-19,-95l87,0l-116,-608l-86,0l-18,-95l206,0l152,798z"
   id="glyph49339" />
<glyph
   unicode="˘"
   horiz-adv-x="400"
   d="M152,689C143,610 177,557 267,557C353,557 401,608 413,689l-82,0C326,664 311,637 274,637C242,637 234,660 231,689z"
   id="glyph49341" />
<glyph
   unicode="¦"
   horiz-adv-x="244"
   d="M84,174l0,-350l109,0l0,350M84,674l0,-350l109,0l0,350z"
   id="glyph49343" />
<glyph
   unicode="•"
   horiz-adv-x="344"
   d="M175,129C250,129 307,185 307,262C307,341 248,396 175,396C102,396 42,339 43,262C43,185 102,129 174,129z"
   id="glyph49345" />
<glyph
   unicode="c"
   horiz-adv-x="403"
   d="M352,137C330,129 305,122 271,122C231,122 194,149 194,208C194,297 251,370 334,370C355,370 371,367 387,362l39,126C404,496 374,501 336,501C157,501 24,370 24,189C24,66 106,-9 223,-9C275,-9 319,-1 347,12z"
   id="glyph49347" />
<glyph
   unicode="ć"
   horiz-adv-x="403"
   d="M352,137C330,129 305,122 271,122C231,122 194,149 194,208C194,297 251,370 334,370C355,370 371,367 387,362l39,126C404,496 374,501 336,501C157,501 24,370 24,189C24,66 106,-9 223,-9C275,-9 319,-1 347,12M317,701l-92,-151l117,0l128,151z"
   id="glyph49349" />
<glyph
   unicode="ˇ"
   horiz-adv-x="400"
   d="M318,550l120,151l-111,0l-52,-70l-2,0l-33,70l-103,0l73,-151z"
   id="glyph49351" />
<glyph
   unicode="č"
   horiz-adv-x="403"
   d="M352,137C330,129 305,122 271,122C231,122 194,149 194,208C194,297 251,370 334,370C355,370 371,367 387,362l39,126C404,496 374,501 336,501C157,501 24,370 24,189C24,66 106,-9 223,-9C275,-9 319,-1 347,12M344,550l120,151l-111,0l-52,-70l-2,0l-33,70l-103,0l73,-151z"
   id="glyph49353" />
<glyph
   unicode="ç"
   horiz-adv-x="403"
   d="M350,137C329,129 303,122 269,122C229,122 192,149 192,208C192,297 250,370 333,370C354,370 369,367 385,361l39,127C403,496 373,501 334,501C155,501 22,370 22,189C22,88 79,9 183,-6l-49,-74C189,-84 206,-97 205,-115C205,-134 188,-141 172,-141C156,-141 135,-135 117,-125l-25,-61C107,-198 141,-207 174,-207C223,-207 300,-185 300,-109C300,-78 275,-50 239,-41l23,33C288,-6 322,1 345,12z"
   id="glyph49355" />
<glyph
   unicode="ĉ"
   horiz-adv-x="403"
   d="M352,137C330,129 305,122 271,122C231,122 194,149 194,208C194,297 251,370 334,370C355,370 371,367 387,362l39,126C404,496 374,501 336,501C157,501 24,370 24,189C24,66 106,-9 223,-9C275,-9 319,-1 347,12M250,701l-120,-151l111,0l51,71l2,0l34,-71l102,0l-72,151z"
   id="glyph49357" />
<glyph
   unicode="ċ"
   horiz-adv-x="403"
   d="M353,137C331,129 306,122 271,122C231,122 194,149 194,208C194,297 252,370 335,370C356,370 371,367 387,362l39,126C405,496 375,501 337,501C157,501 24,370 24,189C24,66 106,-9 223,-9C275,-9 320,-1 347,12M305,547C349,547 385,579 385,629C385,672 355,703 312,703C267,703 231,670 231,621C231,575 265,547 304,547z"
   id="glyph49359" />
<glyph
   unicode="¸"
   horiz-adv-x="400"
   d="M122,5l-54,-85C123,-84 139,-98 138,-115C138,-134 120,-141 104,-141C87,-141 67,-135 51,-126l-26,-60C40,-198 70,-207 103,-207C156,-207 233,-185 233,-106C233,-77 208,-50 172,-41l32,46z"
   id="glyph49361" />
<glyph
   unicode="¢"
   horiz-adv-x="527"
   d="M316,-9l17,94C369,86 401,91 432,104l0,122C404,216 378,210 349,210C294,210 254,245 254,303C254,388 309,452 386,452C416,452 440,448 461,438l45,124C486,571 454,577 428,578l17,90l-102,0l-17,-95C192,545 82,442 82,281C82,227 97,183 122,152C147,120 186,97 233,89l-19,-98z"
   id="glyph49363" />
<glyph
   unicode=""
   horiz-adv-x="300"
   d="M142,-151l11,55C174,-95 194,-92 215,-84l-2,86C196,-4 181,-7 164,-7C134,-7 107,9 107,45C107,88 136,117 181,117C201,117 215,115 227,110l32,86C245,202 225,204 210,205l9,52l-72,0l-9,-55C54,184 -16,127 -16,28C-16,-7 -6,-34 10,-54C26,-74 52,-87 81,-93l-11,-58z"
   id="glyph49365" />
<glyph
   unicode=""
   horiz-adv-x="300"
   d="M248,399l11,55C280,455 300,458 321,466l-2,86C302,546 287,543 270,543C240,543 213,559 213,595C213,638 242,667 287,667C307,667 321,665 333,660l32,86C351,752 331,754 316,755l9,52l-72,0l-9,-55C160,734 90,677 90,578C90,543 100,516 116,496C132,476 158,463 187,457l-11,-58z"
   id="glyph49367" />
<glyph
   unicode="χ"
   horiz-adv-x="468"
   d="M39,492l91,-332C57,43 -11,-62 -85,-179l135,-47C75,-181 106,-124 130,-77C152,-35 164,-11 177,21l6,0C190,-21 197,-55 204,-92l27,-134l157,31l-84,339C377,260 448,376 520,492l-161,0C336,447 312,402 290,357C275,326 263,297 251,270l-5,0C241,304 236,336 230,369l-25,123z"
   id="glyph49369" />
<glyph
   unicode="ˆ"
   horiz-adv-x="400"
   d="M228,701l-120,-151l111,0l52,71l2,0l33,-71l103,0l-73,151z"
   id="glyph49371" />
<glyph
   unicode=":"
   horiz-adv-x="268"
   d="M164,300C224,300 271,344 271,409C271,463 235,502 181,502C121,502 76,448 76,391C76,339 110,300 163,300M105,-10C165,-10 212,34 212,99C212,153 176,192 122,192C62,192 17,138 17,81C17,29 51,-10 104,-10z"
   id="glyph49373" />
<glyph
   unicode=","
   horiz-adv-x="268"
   d="M51,-110C120,-21 181,82 230,187l-172,-10C30,82 -16,-21 -66,-120z"
   id="glyph49375" />
<glyph
   unicode=""
   horiz-adv-x="400"
   d="M62,-242C138,-239 235,-198 235,-103C235,-75 221,-51 210,-40l-117,-19C103,-70 112,-86 112,-106C112,-142 76,-164 45,-170z"
   id="glyph49377" />
<glyph
   unicode=""
   horiz-adv-x="177"
   d="M-6,-208C42,-146 78,-86 110,-18l-120,-6C-28,-86 -55,-147 -88,-215z"
   id="glyph49379" />
<glyph
   unicode=""
   horiz-adv-x="177"
   d="M100,342C148,404 184,464 216,532l-120,-6C78,464 51,403 18,335z"
   id="glyph49381" />
<glyph
   unicode="©"
   horiz-adv-x="667"
   d="M355,648C185,648 47,510 47,340C47,168 185,30 355,30C524,30 660,168 660,340C660,510 524,648 356,648M354,586C484,586 590,476 590,339C590,201 484,91 354,92C223,91 117,200 117,339C116,476 223,586 353,586M489,492C477,505 426,520 379,520C277,520 184,449 184,334C184,232 252,153 367,153C410,153 458,162 493,184l-16,60C455,230 416,220 375,220C311,220 263,269 263,337C263,413 309,453 378,453C422,453 460,438 473,430z"
   id="glyph49383" />
<glyph
   unicode="¤"
   horiz-adv-x="527"
   d="M274,552C232,552 193,540 167,519l-77,84l-72,-76l89,-80C91,422 75,386 75,330C75,277 91,240 107,215l-85,-82l71,-73l72,85C190,124 231,111 271,111C308,111 352,124 377,146l77,-85l70,72l-87,83C452,243 468,280 468,334C468,387 454,422 439,447l89,81l-72,75l-78,-83C355,539 320,552 275,552M271,444C316,444 350,396 350,333C350,260 313,219 272,219C233,219 193,261 193,332C193,400 229,444 270,444z"
   id="glyph49385" />
<glyph
   unicode=""
   horiz-adv-x="400"
   d="M152,848C150,767 191,720 287,720C383,720 440,765 460,848l-111,0C342,815 326,789 296,789C266,789 256,815 260,848z"
   id="glyph49387" />
<glyph
   unicode=""
   horiz-adv-x="400"
   d="M447,730C449,811 408,858 312,858C216,858 159,813 139,730l111,0C257,763 273,789 303,789C333,789 343,763 339,730z"
   id="glyph49389" />
<glyph
   unicode=""
   horiz-adv-x="400"
   d="M144,691C140,607 180,557 265,557C350,557 406,602 423,691l-100,0C315,655 300,628 275,628C249,628 239,652 243,691z"
   id="glyph49391" />
<glyph
   unicode=""
   horiz-adv-x="400"
   d="M407,560C411,643 371,693 285,693C202,693 145,649 128,560l100,0C236,595 250,622 278,622C301,622 312,599 308,560z"
   id="glyph49393" />
<glyph
   unicode="d"
   horiz-adv-x="537"
   d="M408,705l-41,-213C349,499 329,502 313,502C133,502 21,339 21,169C21,51 86,-10 164,-10C212,-10 268,12 307,72l2,0l-5,-72l145,0C453,59 461,128 474,191l97,514M318,225C302,154 270,122 240,122C212,122 189,143 189,197C189,274 235,379 305,379C321,379 337,373 345,366z"
   id="glyph49395" />
<glyph
   unicode="†"
   horiz-adv-x="508"
   d="M262,674l-25,-193l-156,12l-25,-129l162,12l-95,-426l147,0l69,426l156,-12l25,129l-162,-12l51,193z"
   id="glyph49397" />
<glyph
   unicode="‡"
   horiz-adv-x="508"
   d="M265,674l-23,-178l-155,12l-25,-129l160,12l-29,-152l-155,12l-25,-129l160,12l-47,-184l142,0l24,184l155,-12l25,129l-160,-12l29,152l155,-12l25,129l-160,-12l46,178z"
   id="glyph49399" />
<glyph
   unicode=""
   horiz-adv-x="400"
   d="M59,840l122,-128l103,0l-73,128M278,840l122,-128l103,0l-73,128z"
   id="glyph49401" />
<glyph
   unicode=""
   horiz-adv-x="400"
   d="M74,701l103,-151l87,0l-64,151M273,701l103,-151l87,0l-64,151z"
   id="glyph49403" />
<glyph
   unicode="ď"
   horiz-adv-x="542"
   d="M409,705l-42,-213C349,499 330,502 314,502C133,502 21,339 21,169C21,51 86,-10 164,-10C212,-10 268,12 307,72l2,0l-5,-72l146,0C453,59 462,128 474,191l98,514M319,225C302,154 270,122 240,122C212,122 189,143 189,197C189,274 235,379 305,379C321,379 337,373 346,366M624,497C674,523 738,583 738,656C738,681 728,706 717,718l-108,-19C615,689 618,676 618,658C618,622 600,582 571,558z"
   id="glyph49405" />
<glyph
   unicode="đ"
   horiz-adv-x="537"
   d="M318,225C301,155 270,122 240,122C212,122 189,143 189,197C189,274 235,379 305,379C321,379 337,373 345,366M229,630l-17,-91l164,0l-9,-47C349,499 329,502 313,502C133,502 21,339 21,169C21,51 86,-10 164,-10C212,-10 268,12 307,72l2,0l-5,-72l145,0C453,59 461,128 474,191l66,348l71,0l17,91l-71,0l14,75l-163,0l-14,-75z"
   id="glyph49407" />
<glyph
   unicode="°"
   horiz-adv-x="348"
   d="M228,684C146,684 76,617 76,536C76,458 135,399 221,399C298,399 373,459 373,546C373,622 316,684 229,684M227,612C270,612 290,581 290,543C290,503 262,471 225,471C187,471 159,499 159,537C159,577 190,612 226,612z"
   id="glyph49409" />
<glyph
   unicode="δ"
   horiz-adv-x="529"
   d="M509,650C479,680 424,715 331,715C227,715 155,650 155,577C155,537 176,504 188,488l17,-22l0,-4C122,423 21,338 21,195C21,75 105,-10 227,-10C400,-10 500,137 500,273C500,349 460,415 417,461l-49,53C343,540 325,559 325,575C325,589 335,598 356,598C390,598 433,573 453,555M302,347C325,321 334,289 334,250C334,168 294,108 248,108C211,108 188,144 188,191C188,282 226,346 276,379z"
   id="glyph49411" />
<glyph
   unicode="¨"
   horiz-adv-x="400"
   d="M167,548C211,548 246,579 246,629C246,672 217,703 174,703C130,703 94,671 94,622C94,576 128,548 166,548M372,548C416,548 451,579 451,629C451,672 422,703 379,703C335,703 299,671 299,622C299,576 333,548 371,548z"
   id="glyph49413" />
<glyph
   unicode=""
   horiz-adv-x="400"
   d="M123,556C156,556 190,581 190,628C190,665 164,693 128,693C91,693 59,664 59,620C59,577 92,556 122,556M266,705l-76,-152l95,0l117,152M454,556C487,556 521,581 521,627C521,664 495,692 459,692C422,692 390,663 390,620C390,576 424,556 453,556z"
   id="glyph49415" />
<glyph
   unicode=""
   horiz-adv-x="400"
   d="M105,556C139,556 172,581 172,626C172,663 146,691 111,691C74,691 42,662 42,620C42,577 75,556 104,556M172,705l93,-152l89,0l-54,152M432,556C465,556 498,581 498,626C498,662 472,690 436,690C399,690 368,661 368,619C368,576 402,556 431,556z"
   id="glyph49417" />
<glyph
   unicode="΅"
   horiz-adv-x="471"
   d="M265,717l-60,-171l89,0l95,171M127,553C164,553 196,581 196,624C196,661 171,688 133,688C94,688 62,660 62,617C62,577 92,553 126,553M445,553C483,553 514,581 514,624C514,661 489,688 451,688C412,688 380,660 380,617C380,577 410,553 444,553z"
   id="glyph49419" />
<glyph
   unicode="÷"
   horiz-adv-x="596"
   d="M297,364C345,364 374,396 374,441C373,488 344,519 298,519C252,519 221,488 221,441C221,396 251,364 296,364M555,216l0,103l-516,0l0,-103M297,16C345,16 374,48 374,93C373,140 344,171 298,171C252,171 221,140 221,93C221,48 251,16 296,16z"
   id="glyph49421" />
<glyph
   unicode="$"
   horiz-adv-x="527"
   d="M242,-88l19,98C372,23 468,93 468,215C468,288 424,342 350,383C282,420 261,440 261,464C261,492 289,517 338,517C393,517 435,500 461,486l48,120C483,623 438,637 388,639l17,87l-102,0l-17,-89C160,619 88,538 88,443C88,367 146,316 220,272C273,245 295,224 295,192C295,159 261,135 206,135C143,135 98,153 61,178l-48,-124C42,34 101,11 159,8l-19,-96z"
   id="glyph49423" />
<glyph
   unicode=""
   horiz-adv-x="328"
   d="M113,-198l11,56C194,-133 260,-93 260,-15C260,35 226,67 179,90C135,111 121,121 121,133C121,143 134,154 161,154C200,154 231,142 247,132l35,85C264,229 233,238 198,240l10,50l-72,0l-9,-52C44,228 -4,179 -4,116C-4,63 42,34 87,10C121,-5 134,-15 134,-30C134,-44 117,-53 88,-53C43,-53 11,-40 -14,-22l-36,-87C-31,-123 11,-141 52,-143l-11,-55z"
   id="glyph49425" />
<glyph
   unicode=""
   horiz-adv-x="328"
   d="M219,352l11,56C300,417 366,457 366,535C366,585 332,617 285,640C241,661 227,671 227,683C227,693 240,704 267,704C306,704 337,692 353,682l35,85C370,779 339,788 304,790l10,50l-72,0l-9,-52C150,778 102,729 102,666C102,613 148,584 193,560C227,545 240,535 240,520C240,506 223,497 194,497C149,497 117,510 92,528l-36,-87C75,427 117,409 158,407l-11,-55z"
   id="glyph49427" />
<glyph
   unicode="˙"
   horiz-adv-x="400"
   d="M268,547C312,547 348,579 348,629C348,672 318,703 275,703C230,703 194,670 194,621C194,575 228,547 267,547z"
   id="glyph49429" />
<glyph
   unicode="ı"
   horiz-adv-x="267"
   d="M167,0l93,492l-164,0l-93,-492z"
   id="glyph49431" />
<glyph
   unicode="e"
   horiz-adv-x="487"
   d="M407,145C367,126 325,117 277,117C240,117 213,127 196,142C186,152 181,164 179,176C363,170 474,221 474,349C473,441 404,502 303,502C124,502 24,345 24,196C24,68 95,-9 235,-9C288,-9 355,-2 415,26M324,345C324,311 285,293 194,295C200,335 230,381 284,381C310,381 324,366 324,346z"
   id="glyph49433" />
<glyph
   unicode="é"
   horiz-adv-x="487"
   d="M407,145C367,126 325,117 277,117C240,117 213,127 196,142C186,152 181,164 179,176C363,170 474,221 474,349C473,441 404,502 303,502C124,502 24,345 24,196C24,68 95,-9 235,-9C288,-9 355,-2 415,26M324,345C324,311 285,293 194,295C200,335 230,381 284,381C310,381 324,366 324,346M341,701l-92,-151l117,0l128,151z"
   id="glyph49435" />
<glyph
   unicode="ĕ"
   horiz-adv-x="487"
   d="M407,145C367,126 325,117 276,117C240,117 212,127 196,142C186,152 181,164 179,176C363,170 474,221 474,349C473,441 404,502 303,502C124,502 24,345 24,196C24,68 95,-9 234,-9C287,-9 355,-2 415,26M324,345C324,311 285,293 194,295C199,335 229,381 283,381C310,381 324,366 324,346M195,689C186,610 220,557 310,557C397,557 445,608 457,689l-82,0C369,664 354,637 318,637C285,637 277,660 274,689z"
   id="glyph49437" />
<glyph
   unicode="ě"
   horiz-adv-x="487"
   d="M407,145C367,126 325,117 277,117C240,117 213,127 196,142C186,152 181,164 179,176C363,170 474,221 474,349C473,441 404,502 303,502C124,502 24,345 24,196C24,68 95,-9 235,-9C288,-9 355,-2 415,26M324,345C324,311 285,293 194,295C200,335 230,381 284,381C310,381 324,366 324,346M362,550l119,151l-111,0l-51,-70l-2,0l-34,70l-102,0l72,-151z"
   id="glyph49439" />
<glyph
   unicode="ê"
   horiz-adv-x="487"
   d="M407,145C367,126 325,117 277,117C240,117 213,127 196,142C186,152 181,164 179,176C363,170 474,221 474,349C473,441 404,502 303,502C124,502 24,345 24,196C24,68 95,-9 235,-9C288,-9 355,-2 415,26M324,345C324,311 285,293 194,295C200,335 230,381 284,381C310,381 324,366 324,346M278,701l-119,-151l111,0l51,71l2,0l34,-71l102,0l-72,151z"
   id="glyph49441" />
<glyph
   unicode="ë"
   horiz-adv-x="487"
   d="M407,145C367,126 325,117 277,117C240,117 213,127 196,142C186,152 181,164 179,176C363,170 474,221 474,349C473,441 404,502 303,502C124,502 24,345 24,196C24,68 95,-9 234,-9C288,-9 355,-2 415,26M324,345C324,311 285,293 194,295C200,335 229,381 283,381C310,381 324,366 324,346M220,548C264,548 299,579 299,629C299,672 270,703 227,703C183,703 147,671 147,622C147,576 181,548 219,548M425,548C469,548 504,579 504,629C504,672 475,703 432,703C388,703 352,671 352,622C352,576 386,548 424,548z"
   id="glyph49443" />
<glyph
   unicode="ė"
   horiz-adv-x="487"
   d="M407,145C367,126 325,117 277,117C240,117 213,127 196,142C186,152 181,164 179,176C363,170 474,221 474,349C473,441 404,502 303,502C124,502 24,345 24,196C24,68 95,-9 234,-9C288,-9 355,-2 415,26M324,345C324,311 285,293 194,295C200,335 230,381 284,381C310,381 324,366 324,346M312,547C356,547 392,579 392,629C392,672 363,703 319,703C274,703 238,670 238,621C238,575 272,547 311,547z"
   id="glyph49445" />
<glyph
   unicode="è"
   horiz-adv-x="487"
   d="M407,145C367,126 325,117 277,117C240,117 213,127 196,142C186,152 181,164 179,176C363,170 474,221 474,349C473,441 404,502 303,502C124,502 24,345 24,196C24,68 95,-9 235,-9C288,-9 355,-2 415,26M324,345C324,311 285,293 194,295C200,335 230,381 284,381C310,381 324,366 324,346M161,701l102,-151l114,0l-66,151z"
   id="glyph49447" />
<glyph
   unicode="8"
   horiz-adv-x="527"
   d="M325,660C200,660 86,586 86,463C86,418 104,376 145,342l-1,-2C76,309 14,249 14,158C14,61 91,-9 228,-10C352,-10 487,62 487,205C487,257 459,311 406,346l1,2C477,382 518,435 518,500C518,603 436,660 326,660M244,104C203,104 182,135 182,176C182,227 217,265 254,280C289,265 319,238 319,192C319,137 281,104 245,104M310,546C342,546 364,525 364,488C364,447 335,413 300,397C268,411 241,433 241,470C241,510 272,546 309,546z"
   id="glyph49449" />
<glyph
   unicode="₈"
   horiz-adv-x="358"
   d="M175,250C90,250 12,207 12,129C12,101 30,76 57,59l-1,-1C12,40 -30,4 -30,-48C-30,-107 25,-150 115,-150C196,-150 292,-110 292,-19C292,12 272,43 233,64l1,1C274,83 307,114 307,152C307,219 244,250 176,250M127,-69C107,-69 94,-53 94,-33C94,-5 111,10 130,18C151,10 166,-4 166,-26C166,-52 148,-69 128,-69M161,172C181,172 194,161 194,141C194,121 182,105 164,98C140,109 130,121 130,138C130,156 143,172 160,172z"
   id="glyph49451" />
<glyph
   unicode=""
   horiz-adv-x="545"
   d="M317,622C198,622 89,553 89,438C89,390 117,348 155,322l0,-3C79,286 23,234 23,155C23,61 102,-9 240,-10C372,-10 496,69 496,194C496,251 455,299 412,326l0,3C468,357 518,397 518,464C518,555 441,622 318,622M310,510C342,510 364,487 364,454C364,422 340,393 310,380C279,393 242,416 242,452C242,482 268,510 309,510M256,108C221,108 192,133 192,175C192,210 219,244 261,263C296,245 326,217 326,184C326,144 296,108 257,108z"
   id="glyph49453" />
<glyph
   unicode="⁸"
   horiz-adv-x="358"
   d="M281,800C196,800 118,757 118,679C118,651 136,626 163,609l-1,-1C118,590 76,554 76,502C76,443 131,400 221,400C302,400 398,440 398,531C398,562 378,593 339,614l1,1C380,633 413,664 413,702C413,769 350,800 282,800M233,481C213,481 200,497 200,517C200,545 217,560 236,568C257,560 272,546 272,524C272,498 254,481 234,481M267,722C287,722 300,711 300,691C300,671 288,655 270,648C246,659 236,671 236,688C236,706 249,722 266,722z"
   id="glyph49455" />
<glyph
   unicode="…"
   horiz-adv-x="1000"
   d="M127,-9C188,-9 235,35 235,103C235,159 199,198 143,198C82,198 37,144 37,85C37,30 71,-9 126,-9M461,-9C522,-9 569,35 569,103C569,159 533,198 477,198C416,198 371,144 371,85C371,30 405,-9 460,-9M795,-9C856,-9 903,35 903,103C903,159 867,198 811,198C750,198 705,144 705,85C705,30 739,-9 794,-9z"
   id="glyph49457" />
<glyph
   unicode="ē"
   horiz-adv-x="487"
   d="M407,145C367,126 325,117 277,117C240,117 213,127 196,142C186,152 181,164 179,176C363,170 474,221 474,349C473,441 404,502 303,502C124,502 24,345 24,196C24,68 95,-9 235,-9C288,-9 355,-2 415,26M324,345C324,311 285,293 194,295C200,335 230,381 284,381C310,381 324,366 324,346M202,667l-18,-85l243,0l18,85z"
   id="glyph49459" />
<glyph
   unicode="—"
   horiz-adv-x="1000"
   d="M42,309l-21,-107l940,0l21,107z"
   id="glyph49461" />
<glyph
   unicode="–"
   horiz-adv-x="500"
   d="M42,309l-21,-107l440,0l21,107z"
   id="glyph49463" />
<glyph
   unicode="ŋ"
   horiz-adv-x="542"
   d="M209,-193C327,-191 417,-141 452,47l46,239C502,313 507,350 507,372C507,448 471,502 386,502C329,502 274,477 231,422l-2,0l7,70l-143,0C86,445 77,389 66,328l-62,-328l163,0l43,223C229,323 268,370 304,370C329,370 337,352 337,326C337,310 335,293 332,277l-46,-243C275,-26 249,-56 192,-61z"
   id="glyph49465" />
<glyph
   unicode="ę"
   horiz-adv-x="487"
   d="M324,345C324,311 285,293 194,295C200,335 229,381 283,381C310,381 324,366 324,346M340,-106C332,-109 312,-115 294,-115C278,-115 266,-106 266,-88C266,-68 285,-38 351,1C385,14 400,19 415,26l-8,119C367,126 325,117 277,117C240,117 213,127 196,142C186,152 180,164 179,176C363,170 474,221 474,349C474,441 404,502 303,502C124,502 24,345 24,196C24,76 86,2 207,-8C213,-8 219,-9 226,-9l0,-1C180,-41 148,-88 148,-133C148,-187 182,-220 243,-220C282,-220 325,-210 360,-185z"
   id="glyph49467" />
<glyph
   unicode="ε"
   horiz-adv-x="427"
   d="M339,201l18,106l-30,0C262,307 222,318 222,344C222,368 253,384 301,384C335,384 373,375 396,362l37,103C403,486 354,502 287,502C147,502 61,432 61,352C61,314 83,277 131,261l-1,-5C73,246 11,198 11,116C11,28 101,-10 207,-10C254,-10 323,-6 383,23l-1,115C351,126 307,115 263,115C226,115 189,126 189,151C189,192 245,200 305,201z"
   id="glyph49469" />
<glyph
   unicode="έ"
   horiz-adv-x="427"
   d="M295,701l-91,-151l111,0l128,151M340,201l18,106l-30,0C263,307 223,318 223,344C223,368 254,384 302,384C336,384 374,375 397,362l37,103C404,487 356,502 288,502C148,502 62,432 62,352C62,314 84,277 132,261l-1,-5C73,246 11,198 11,116C11,28 101,-10 207,-10C254,-10 323,-6 383,24l-1,114C351,126 307,115 263,115C226,115 189,126 189,151C189,192 245,200 305,201z"
   id="glyph49471" />
<glyph
   unicode="="
   horiz-adv-x="596"
   d="M558,317l0,103l-516,0l0,-103M558,114l0,103l-516,0l0,-103z"
   id="glyph49473" />
<glyph
   unicode="℮"
   horiz-adv-x="817"
   d="M802,316C802,319 802,322 802,325C802,511 635,661 429,661C223,661 55,511 55,325C55,139 223,-11 429,-11C549,-11 657,41 725,120l-55,0C612,52 526,9 430,9C340,9 258,47 201,108C196,114 192,121 192,129l0,183C192,315 194,316 197,316M666,340C666,337 664,335 661,335l-464,0C194,335 192,337 192,340l0,180C192,529 196,537 202,543C260,603 340,641 430,641C518,641 598,604 656,546C662,540 666,533 666,524z"
   id="glyph49475" />
<glyph
   unicode="η"
   horiz-adv-x="542"
   d="M228,422C230,445 229,474 223,492l-142,0C87,452 77,389 65,328l-62,-328l164,0l42,223C228,323 267,370 303,370C328,370 337,352 337,326C337,310 335,291 332,277l-52,-277C261,-100 254,-174 265,-196l154,0C417,-160 427,-87 442,-4l56,290C502,311 507,350 507,374C507,448 472,502 388,502C329,502 273,477 230,422z"
   id="glyph49477" />
<glyph
   unicode="ή"
   horiz-adv-x="542"
   d="M348,701l-92,-151l111,0l128,151M228,422C230,445 230,474 225,492l-142,0C88,452 77,389 66,328l-62,-328l163,0l42,223C228,323 268,370 304,370C329,370 337,352 337,326C337,310 335,291 332,277l-52,-277C262,-97 256,-174 265,-196l153,0C417,-157 427,-87 442,-4l56,290C502,311 507,350 507,374C507,448 472,502 388,502C329,502 274,477 231,422z"
   id="glyph49479" />
<glyph
   unicode="ð"
   horiz-adv-x="535"
   d="M241,113C208,113 189,140 189,182C188,260 227,358 286,358C317,358 330,342 335,328C340,307 338,292 334,254C326,182 301,113 242,113M144,474l146,62C307,519 322,493 331,467l-1,-5C309,472 289,474 265,472C121,460 22,335 22,194C22,82 89,-10 230,-10C401,-10 510,139 510,341C510,446 475,537 425,591l99,41l-23,62l-127,-53C338,671 294,697 243,716l-80,-85C188,618 216,600 236,585l-115,-49z"
   id="glyph49481" />
<glyph
   unicode="!"
   horiz-adv-x="274"
   d="M198,233l108,441l-177,0l-61,-441M98,-10C158,-10 205,34 205,99C205,151 169,190 115,190C55,190 10,136 10,80C10,29 44,-10 97,-10z"
   id="glyph49483" />
<glyph
   unicode="¡"
   horiz-adv-x="274"
   d="M141,-190l62,441l-131,0l-108,-441M172,495C112,495 65,451 65,386C65,334 101,295 156,295C215,295 260,349 260,405C260,456 226,495 173,495z"
   id="glyph49485" />
<glyph
   unicode="f"
   horiz-adv-x="335"
   d="M186,0l70,371l91,0l23,121l-92,0l4,23C289,550 315,582 354,582C372,582 385,580 397,575l30,128C410,710 382,715 347,715C295,715 241,702 201,667C152,626 130,570 119,514l-4,-22l-64,0l-23,-121l64,0l-70,-371z"
   id="glyph49487" />
<glyph
   unicode=""
   horiz-adv-x="862"
   d="M838,688C811,701 757,714 698,714C535,714 441,624 418,510l-4,-18l-137,0l3,14C284,524 292,545 305,557C314,566 326,571 341,571C353,571 365,568 373,564l52,118C411,690 377,701 341,701C272,701 222,678 187,642C152,607 130,559 119,508l-4,-16l-64,0l-23,-121l64,0l-70,-371l164,0l70,371l135,0l-70,-371l164,0l70,371l116,0l-66,-346C589,-62 564,-78 532,-78C522,-78 514,-78 504,-76l-18,-123C510,-204 535,-206 557,-206C618,-206 673,-185 704,-144C734,-108 754,-57 770,31l87,461l-280,0l3,18C586,545 612,583 691,583C737,583 774,572 798,563z"
   id="glyph49489" />
<glyph
   unicode=""
   horiz-adv-x="564"
   d="M540,688C513,701 459,714 400,714C237,714 143,624 120,510l-4,-18l-64,0l-23,-121l65,0l-71,-371l164,0l70,371l116,0l-65,-346C291,-62 266,-78 234,-78C224,-78 216,-78 206,-76l-17,-123C212,-204 237,-206 259,-206C320,-206 375,-185 406,-144C436,-108 456,-57 472,31l87,461l-280,0l3,18C288,545 314,583 393,583C439,583 476,572 500,563z"
   id="glyph49491" />
<glyph
   unicode="ﬀ"
   horiz-adv-x="634"
   d="M725,703C707,710 680,715 645,715C594,715 540,702 500,667C451,626 429,570 418,514l-4,-22l-137,0l4,16C287,536 302,571 341,571C354,571 362,569 371,566l44,122C397,695 371,701 339,701C270,701 221,678 187,643C149,606 128,554 118,506l-3,-14l-65,0l-22,-121l64,0l-70,-371l164,0l69,371l136,0l-70,-371l164,0l70,371l91,0l23,121l-92,0l4,23C587,550 613,582 652,582C670,582 683,580 695,575z"
   id="glyph49493" />
<glyph
   unicode="ﬃ"
   horiz-adv-x="862"
   d="M838,688C811,701 757,714 698,714C535,714 441,624 418,510l-4,-18l-137,0l3,14C284,524 292,545 305,557C314,566 326,571 341,571C353,571 365,568 373,564l53,118C411,690 377,701 341,701C272,701 222,678 187,642C152,607 130,559 119,508l-4,-16l-64,0l-23,-121l64,0l-70,-371l164,0l70,371l136,0l-71,-371l164,0l70,371l115,0l-70,-371l163,0l94,492l-280,0l3,18C586,545 611,583 690,583C736,583 773,572 797,563z"
   id="glyph49495" />
<glyph
   unicode="ﬄ"
   horiz-adv-x="862"
   d="M423,684C406,691 375,701 337,701C272,701 222,680 186,644C151,609 128,560 117,504l-2,-12l-64,0l-23,-121l64,0l-70,-371l164,0l70,371l136,0l-71,-371l164,0l70,371l73,0l23,121l-74,0l3,17C587,552 617,589 662,589C687,589 701,585 710,580l-110,-580l163,0l127,675C846,700 763,715 703,715C623,715 558,698 510,662C452,619 426,559 418,511l-4,-19l-137,0l3,14C283,521 291,543 304,557C313,565 324,571 340,571C353,571 365,568 375,564z"
   id="glyph49497" />
<glyph
   unicode="ﬁ"
   horiz-adv-x="564"
   d="M187,0l70,371l114,0l-70,-371l164,0l93,492l-279,0l3,18C288,545 314,583 393,583C439,583 476,572 500,563l41,125C514,701 460,714 400,714C237,714 141,624 120,510l-4,-18l-64,0l-23,-121l65,0l-71,-371z"
   id="glyph49499" />
<glyph
   unicode="5"
   horiz-adv-x="527"
   d="M521,650l-345,0l-91,-347C109,305 129,307 156,307C263,307 303,274 303,218C303,156 232,128 171,128C122,128 77,141 51,155l-40,-132C36,4 95,-10 169,-10C337,-10 471,87 471,246C471,305 449,352 411,384C371,419 311,430 280,430C273,430 268,430 261,429l22,81l209,0z"
   id="glyph49501" />
<glyph
   unicode="₅"
   horiz-adv-x="326"
   d="M282,245l-234,0l-56,-215C7,32 22,33 41,33C100,33 129,19 129,-9C129,-41 96,-54 54,-54C20,-54 -10,-46 -25,-39l-28,-93C-33,-142 3,-150 53,-150C171,-150 261,-92 261,8C261,46 243,76 206,94C184,110 154,115 136,115C130,115 123,115 115,114l8,32l139,0z"
   id="glyph49503" />
<glyph
   unicode=""
   horiz-adv-x="438"
   d="M-26,-108C0,-120 53,-130 109,-130C270,-130 389,-47 389,103C389,149 371,189 342,217C308,249 259,269 200,275l27,78l172,0l41,139l-304,0l-106,-323C96,169 173,159 202,131C214,119 220,100 220,84C220,33 171,1 99,1C63,1 27,7 6,14z"
   id="glyph49505" />
<glyph
   unicode="⁵"
   horiz-adv-x="326"
   d="M388,795l-234,0l-56,-215C113,582 128,583 147,583C206,583 235,569 235,541C235,509 202,496 160,496C126,496 96,504 81,511l-28,-93C73,408 109,400 159,400C277,400 367,458 367,558C367,596 349,626 312,644C290,660 260,665 242,665C236,665 229,665 221,664l8,32l139,0z"
   id="glyph49507" />
<glyph
   unicode="ﬂ"
   horiz-adv-x="564"
   d="M187,0l70,371l73,0l22,121l-73,0l3,17C289,552 319,589 364,589C389,589 403,585 412,580l-110,-580l163,0l127,675C548,700 465,714 405,715C325,715 260,698 212,662C154,619 128,559 120,511l-4,-19l-64,0l-23,-121l65,0l-71,-371z"
   id="glyph49509" />
<glyph
   unicode="ƒ"
   horiz-adv-x="527"
   d="M104,292l71,0l-27,-134C124,54 98,36 68,36C52,36 37,38 23,44l-31,-117C7,-81 35,-90 76,-90C216,-90 271,8 294,117l38,175l104,0l19,117l-96,0l9,44C379,506 405,534 443,534C458,534 471,532 484,526l39,118C506,653 478,660 446,660C278,660 224,518 209,443l-8,-34l-79,0z"
   id="glyph49511" />
<glyph
   unicode="4"
   horiz-adv-x="527"
   d="M387,0l29,149l69,0l23,125l-69,0l71,376l-192,0l-289,-391l-20,-110l258,0l-29,-149M183,274l1,2l76,110C288,426 314,468 342,512l4,0C335,469 322,422 313,379l-23,-105z"
   id="glyph49513" />
<glyph
   unicode="₄"
   horiz-adv-x="353"
   d="M225,-145l17,84l44,0l17,85l-45,0l42,224l-144,0l-189,-235l-14,-74l173,0l-16,-84M142,24l-61,0l0,1l42,58C135,100 153,126 169,151l3,0C165,126 157,97 152,72z"
   id="glyph49515" />
<glyph
   unicode=""
   horiz-adv-x="524"
   d="M391,29l69,0l24,122l-69,0l64,341l-191,0l-282,-355l-21,-108l259,0l-30,-155l148,0M267,151l-106,0l-1,5l83,110C264,295 290,335 307,366l4,0C302,331 292,285 286,250z"
   id="glyph49517" />
<glyph
   unicode="⁴"
   horiz-adv-x="353"
   d="M331,405l17,84l44,0l17,85l-45,0l42,224l-144,0l-189,-235l-14,-74l173,0l-16,-84M248,574l-61,0l0,1l42,58C241,650 259,676 275,701l3,0C271,676 263,647 258,622z"
   id="glyph49519" />
<glyph
   unicode="⁄"
   horiz-adv-x="225"
   d="M-71,-10l488,670l-94,0l-488,-670z"
   id="glyph49521" />
<glyph
   unicode="g"
   horiz-adv-x="536"
   d="M7,-179C37,-195 96,-206 155,-206C227,-206 297,-191 349,-149C406,-102 433,-23 449,60l74,408C472,490 414,502 343,502C131,502 22,330 24,171C25,79 79,5 169,5C219,5 256,24 291,66l2,0l-7,-35C271,-45 226,-78 158,-78C124,-78 69,-69 44,-55M321,236C310,173 277,130 242,130C211,130 194,159 194,201C194,280 245,377 313,377C325,377 339,376 347,372z"
   id="glyph49523" />
<glyph
   unicode="γ"
   horiz-adv-x="476"
   d="M216,-196C227,-131 241,-52 247,-9C249,3 255,15 262,23C387,167 472,323 493,436C496,457 497,478 496,492l-161,0C336,477 334,458 331,438C315,348 279,257 234,172l-4,0C231,298 212,428 191,492l-179,0C49,388 96,198 94,68C92,-30 72,-125 56,-196z"
   id="glyph49525" />
<glyph
   unicode="ğ"
   horiz-adv-x="536"
   d="M7,-179C37,-195 96,-206 155,-206C227,-206 297,-191 348,-149C405,-102 433,-23 448,60l75,408C472,490 414,502 343,502C131,502 22,330 24,171C25,79 79,5 169,5C219,5 256,24 291,66l2,0l-7,-35C271,-45 226,-78 158,-78C124,-78 69,-69 44,-55M321,236C310,173 277,130 242,130C211,130 194,159 194,201C194,280 245,377 313,377C325,377 339,376 347,372M220,689C211,610 245,557 335,557C421,557 469,608 481,689l-82,0C394,664 379,637 342,637C310,637 302,660 299,689z"
   id="glyph49527" />
<glyph
   unicode="ĝ"
   horiz-adv-x="536"
   d="M7,-179C37,-195 96,-206 155,-206C227,-206 297,-191 349,-149C406,-102 433,-23 449,60l74,408C472,490 414,502 343,502C131,502 22,330 24,171C25,79 79,5 169,5C219,5 256,24 291,66l2,0l-7,-35C271,-45 226,-78 158,-78C124,-78 69,-69 44,-55M321,236C310,173 277,130 242,130C211,130 194,159 194,201C194,280 245,377 313,377C325,377 339,376 347,372M296,701l-120,-151l111,0l52,71l2,0l33,-71l103,0l-73,151z"
   id="glyph49529" />
<glyph
   unicode="ģ"
   horiz-adv-x="536"
   d="M7,-179C37,-195 96,-206 155,-206C227,-206 297,-191 349,-149C406,-102 434,-23 449,60l75,408C472,490 414,502 343,502C131,502 22,330 24,171C25,79 79,5 169,5C219,5 257,24 291,66l2,0l-6,-35C271,-45 226,-78 158,-78C124,-78 69,-69 44,-55M322,236C309,173 277,130 242,130C211,130 194,159 194,201C194,280 245,377 314,377C325,377 339,376 347,372M446,732C368,729 271,688 271,594C271,565 285,542 296,530l112,19C398,560 389,576 389,596C389,634 425,655 461,660z"
   id="glyph49531" />
<glyph
   unicode="ġ"
   horiz-adv-x="536"
   d="M7,-179C37,-195 96,-206 155,-206C227,-206 297,-191 349,-149C406,-102 433,-23 449,60l75,408C472,490 414,502 343,502C131,502 22,330 24,171C25,79 79,5 169,5C219,5 257,24 291,66l2,0l-6,-35C271,-45 226,-78 158,-78C124,-78 69,-69 44,-55M322,236C310,173 277,130 242,130C211,130 194,159 194,201C194,280 245,377 314,377C325,377 339,376 347,372M344,547C388,547 424,579 424,629C424,672 394,703 351,703C306,703 270,670 270,621C270,575 304,547 343,547z"
   id="glyph49533" />
<glyph
   unicode="ß"
   horiz-adv-x="570"
   d="M167,0l85,449C270,544 309,586 355,586C390,586 408,560 408,534C408,508 401,496 392,483C347,457 299,408 299,344C299,301 315,272 341,226C360,193 364,178 364,160C364,130 342,114 309,114C289,114 265,118 244,129l-35,-119C229,0 267,-10 316,-10C433,-10 529,44 529,183C529,226 510,274 489,308C474,335 466,354 466,376C466,408 491,431 525,452C551,474 567,508 567,552C567,643 494,715 375,715C202,715 118,609 86,435l-83,-435z"
   id="glyph49535" />
<glyph
   unicode="`"
   horiz-adv-x="400"
   d="M124,701l102,-151l114,0l-66,151z"
   id="glyph49537" />
<glyph
   unicode="&gt;"
   horiz-adv-x="596"
   d="M557,319l-487,213l0,-119l366,-146l0,-2l-366,-146l0,-119l487,213z"
   id="glyph49539" />
<glyph
   unicode="≥"
   horiz-adv-x="596"
   d="M540,294l0,102l-484,171l0,-112l340,-109l0,-2l-340,-109l0,-112M540,0l0,96l-484,0l0,-96z"
   id="glyph49541" />
<glyph
   unicode="«"
   horiz-adv-x="457"
   d="M267,444l-122,0l-130,-192l90,-192l111,0l-89,188M462,444l-122,0l-130,-192l90,-192l111,0l-89,188z"
   id="glyph49543" />
<glyph
   unicode="»"
   horiz-adv-x="456"
   d="M137,259l-140,-199l122,0l130,192l-90,192l-111,0M332,259l-140,-199l122,0l130,192l-90,192l-111,0z"
   id="glyph49545" />
<glyph
   unicode="‹"
   horiz-adv-x="262"
   d="M267,444l-122,0l-130,-192l90,-192l111,0l-89,188z"
   id="glyph49547" />
<glyph
   unicode="›"
   horiz-adv-x="261"
   d="M137,259l-140,-199l122,0l130,192l-90,192l-111,0z"
   id="glyph49549" />
<glyph
   unicode="h"
   horiz-adv-x="542"
   d="M167,0l45,235C229,322 266,370 303,370C328,370 337,353 337,328C337,312 335,289 331,269l-51,-269l163,0l54,280C502,313 507,351 507,374C507,450 471,502 393,502C334,502 288,474 252,437l-2,0l51,268l-164,0l-133,-705z"
   id="glyph49551" />
<glyph
   unicode="ħ"
   horiz-adv-x="542"
   d="M42,627l-17,-91l81,0l-102,-536l163,0l45,235C229,322 266,370 303,370C328,370 337,353 337,328C337,312 335,289 331,269l-51,-269l163,0l54,280C502,313 507,351 507,374C507,450 471,502 393,502C334,502 288,474 252,437l-2,0l19,100l148,0l17,90l-148,0l15,78l-164,0l-14,-78z"
   id="glyph49553" />
<glyph
   unicode="ĥ"
   horiz-adv-x="542"
   d="M167,0l45,235C229,322 266,370 303,370C328,370 337,353 337,328C337,312 335,289 331,269l-51,-269l163,0l54,280C502,313 507,351 507,374C507,450 471,502 393,502C334,502 288,474 252,437l-2,0l51,268l-164,0l-133,-705M194,866l-123,-130l121,0l51,56l2,0l32,-56l111,0l-76,130z"
   id="glyph49555" />
<glyph
   unicode="˝"
   horiz-adv-x="400"
   d="M188,701l-79,-152l94,0l117,152M366,701l-79,-152l94,0l117,152z"
   id="glyph49557" />
<glyph
   unicode="-"
   horiz-adv-x="305"
   d="M45,324l-22,-115l245,0l22,115z"
   id="glyph49559" />
<glyph
   unicode=""
   horiz-adv-x="194"
   d="M-14,83l-15,-79l159,0l15,79z"
   id="glyph49561" />
<glyph
   unicode=""
   horiz-adv-x="194"
   d="M92,633l-15,-79l159,0l15,79z"
   id="glyph49563" />
<glyph
   unicode="i"
   horiz-adv-x="267"
   d="M167,0l94,492l-164,0l-93,-492M196,543C245,543 289,576 289,634C289,679 259,711 211,711C161,711 121,671 121,620C121,574 151,543 195,543z"
   id="glyph49565" />
<glyph
   unicode="í"
   horiz-adv-x="267"
   d="M167,0l93,492l-164,0l-93,-492M217,701l-92,-151l117,0l128,151z"
   id="glyph49567" />
<glyph
   unicode="ĭ"
   horiz-adv-x="267"
   d="M167,0l93,492l-163,0l-94,-492M85,689C76,610 110,557 200,557C286,557 334,608 346,689l-82,0C259,664 244,637 207,637C175,637 167,660 164,689z"
   id="glyph49569" />
<glyph
   unicode="î"
   horiz-adv-x="267"
   d="M167,0l93,492l-163,0l-94,-492M161,701l-120,-151l111,0l52,71l2,0l33,-71l103,0l-73,151z"
   id="glyph49571" />
<glyph
   unicode="ï"
   horiz-adv-x="267"
   d="M167,0l94,492l-164,0l-94,-492M100,548C144,548 179,579 179,629C179,672 150,703 107,703C63,703 27,671 27,622C27,576 61,548 99,548M305,548C349,548 384,579 384,629C384,672 355,703 312,703C268,703 232,671 232,622C232,576 266,548 304,548z"
   id="glyph49573" />
<glyph
   unicode="ì"
   horiz-adv-x="267"
   d="M167,0l94,492l-164,0l-93,-492M36,701l102,-151l114,0l-66,151z"
   id="glyph49575" />
<glyph
   unicode="ĳ"
   horiz-adv-x="540"
   d="M167,0l94,492l-164,0l-93,-492M196,543C245,543 289,576 289,634C289,679 259,711 211,711C161,711 121,671 121,620C121,574 151,543 195,543M375,492l-88,-467C271,-62 246,-78 214,-78C204,-78 196,-78 186,-76l-18,-123C192,-204 217,-206 239,-206C300,-206 355,-185 386,-144C415,-108 436,-57 452,31l86,461M470,543C519,543 563,576 563,634C563,679 533,711 485,711C435,711 395,671 395,620C395,574 425,543 469,543z"
   id="glyph49577" />
<glyph
   unicode="ī"
   horiz-adv-x="267"
   d="M167,0l93,492l-164,0l-93,-492M91,667l-18,-85l243,0l18,85z"
   id="glyph49579" />
<glyph
   unicode="∞"
   horiz-adv-x="760"
   d="M560,91C666,91 734,173 734,264C734,361 667,437 568,437C480,437 432,384 380,336C331,384 272,437 198,437C92,437 24,355 24,264C24,167 91,91 190,91C278,91 326,144 378,192C427,144 486,91 559,91M556,193C512,193 476,237 447,265C481,298 516,335 559,335C596,335 625,306 625,264C625,225 595,193 557,193M199,193C162,193 133,222 133,264C133,303 163,335 202,335C246,335 282,291 311,263C277,230 242,193 200,193z"
   id="glyph49581" />
<glyph
   unicode="∫"
   horiz-adv-x="337"
   d="M413,801C399,808 376,812 352,812C205,812 156,682 135,544C111,378 110,273 82,92C74,31 61,-58 -1,-58C-14,-58 -27,-55 -36,-51l-28,-106C-47,-164 -27,-170 3,-170C155,-170 193,-27 212,98C238,275 240,378 262,533C273,598 284,707 351,707C364,707 377,705 385,702z"
   id="glyph49583" />
<glyph
   unicode="į"
   horiz-adv-x="267"
   d="M196,547C249,547 297,583 297,647C297,697 264,731 212,731C157,731 114,687 114,632C114,581 146,547 195,547M260,492l-163,0l-93,-491C-16,-25 -50,-75 -50,-125C-50,-187 -12,-220 54,-220C92,-220 134,-210 164,-185l-12,79C143,-109 124,-114 105,-114C81,-114 66,-100 66,-77C66,-56 79,-24 96,0l71,0z"
   id="glyph49585" />
<glyph
   unicode="ι"
   horiz-adv-x="267"
   d="M254,492l-164,0l-61,-324C25,142 19,114 19,97C19,20 63,-10 131,-10C156,-10 179,-6 194,-1l31,118C194,116 184,126 191,165z"
   id="glyph49587" />
<glyph
   unicode="ϊ"
   horiz-adv-x="267"
   d="M87,544C129,544 163,574 163,622C163,662 135,692 94,692C52,692 17,661 17,614C17,571 50,544 86,544M290,544C332,544 366,574 366,622C366,662 338,692 297,692C255,692 220,661 220,614C220,571 253,544 289,544M254,492l-163,0l-62,-324C24,142 21,118 21,93C21,20 64,-10 131,-10C157,-10 178,-6 194,-1l32,118C195,115 185,131 192,165z"
   id="glyph49589" />
<glyph
   unicode="ΐ"
   horiz-adv-x="267"
   d="M254,492l-164,0l-62,-324C24,141 20,117 20,95C20,19 63,-10 131,-10C157,-10 177,-6 193,-1l32,119C195,116 184,128 191,163M179,715l-59,-170l88,0l95,170M41,551C77,551 108,578 108,620C108,656 83,682 46,682C9,682 -22,655 -22,613C-22,574 7,551 40,551M359,551C396,551 426,578 426,620C426,656 401,682 364,682C327,682 296,655 296,613C296,574 325,551 358,551z"
   id="glyph49591" />
<glyph
   unicode="ί"
   horiz-adv-x="267"
   d="M220,701l-92,-151l111,0l128,151M254,492l-163,0l-62,-324C25,144 20,119 20,95C20,16 66,-10 131,-10C157,-10 178,-6 194,-1l31,119C195,115 185,129 192,165z"
   id="glyph49593" />
<glyph
   unicode="ĩ"
   horiz-adv-x="267"
   d="M167,0l94,492l-165,0l-93,-492M136,556C141,583 151,601 162,601C172,601 183,595 197,583C211,573 233,564 259,564C310,564 345,600 359,694l-74,0C275,659 268,650 255,650C245,650 233,660 219,670C204,679 187,689 159,689C105,689 71,639 59,556z"
   id="glyph49595" />
<glyph
   unicode="j"
   horiz-adv-x="274"
   d="M108,492l-88,-467C4,-62 -21,-78 -53,-78C-63,-78 -71,-78 -81,-76l-18,-123C-75,-204 -50,-206 -28,-206C33,-206 88,-185 119,-144C148,-108 169,-57 185,31l86,461M203,543C252,543 296,576 296,634C296,679 266,711 218,711C168,711 128,671 128,620C128,574 158,543 202,543z"
   id="glyph49597" />
<glyph
   unicode="ĵ"
   horiz-adv-x="274"
   d="M109,492l-88,-467C5,-62 -20,-78 -53,-78C-63,-78 -70,-78 -80,-76l-18,-123C-74,-204 -49,-206 -27,-206C33,-206 88,-185 120,-144C149,-108 169,-57 186,31l86,461M161,701l-120,-151l107,0l52,78l2,0l33,-78l99,0l-73,151z"
   id="glyph49599" />
<glyph
   unicode="k"
   horiz-adv-x="518"
   d="M165,0l28,150l44,48l60,-198l178,0l-112,283l191,209l-194,0l-96,-138C250,334 237,314 222,294l-2,0l78,411l-161,0l-134,-705z"
   id="glyph49601" />
<glyph
   unicode="κ"
   horiz-adv-x="517"
   d="M354,266C424,340 491,413 553,486l0,6l-184,0C327,432 271,348 225,289l-4,0l22,117C251,449 247,479 239,492l-155,0C89,469 78,398 68,345l-65,-345l163,0l36,195l7,0C237,195 249,153 261,93l20,-93l176,0l-38,131C403,193 389,244 353,262z"
   id="glyph49603" />
<glyph
   unicode="ķ"
   horiz-adv-x="518"
   d="M165,0l29,150l43,48l60,-198l178,0l-112,283l191,209l-194,0l-96,-138C250,334 237,314 223,294l-2,0l78,411l-162,0l-133,-705M121,-242C197,-239 294,-198 294,-104C294,-75 280,-51 269,-40l-117,-19C162,-70 171,-86 171,-106C171,-142 135,-164 104,-170z"
   id="glyph49605" />
<glyph
   unicode="ĸ"
   horiz-adv-x="518"
   d="M165,0l28,150l44,48l60,-198l178,0l-112,283l191,209l-194,0l-96,-138C250,334 237,314 222,294l-2,0l38,198l-161,0l-94,-492z"
   id="glyph49607" />
<glyph
   unicode="l"
   horiz-adv-x="267"
   d="M168,0l134,705l-164,0l-134,-705z"
   id="glyph49609" />
<glyph
   unicode="ĺ"
   horiz-adv-x="267"
   d="M168,0l134,705l-163,0l-135,-705M249,872l-99,-130l132,0l139,130z"
   id="glyph49611" />
<glyph
   unicode="λ"
   horiz-adv-x="464"
   d="M260,0l166,0l-73,468C332,598 299,693 188,703C169,705 149,704 135,702l-34,-127C107,575 113,575 120,574C157,572 179,544 186,504C187,497 188,491 188,486C188,479 184,469 179,458l-227,-458l170,0l80,206C213,235 222,264 232,297l6,0C240,261 243,235 244,211z"
   id="glyph49613" />
<glyph
   unicode="ľ"
   horiz-adv-x="272"
   d="M168,0l135,705l-164,0l-135,-705M362,498C405,515 474,573 474,656C474,681 464,706 453,718l-108,-19C351,689 354,676 354,658C354,619 331,577 307,556z"
   id="glyph49615" />
<glyph
   unicode="ļ"
   horiz-adv-x="267"
   d="M167,0l135,705l-164,0l-134,-705M-10,-242C66,-239 163,-198 163,-104C163,-75 149,-51 138,-40l-117,-19C31,-70 40,-86 40,-106C40,-142 4,-164 -27,-170z"
   id="glyph49617" />
<glyph
   unicode="ŀ"
   horiz-adv-x="385"
   d="M168,0l134,705l-163,0l-135,-705M339,270C380,270 414,301 414,350C414,392 386,422 345,422C303,422 269,390 269,342C269,298 301,270 338,270z"
   id="glyph49619" />
<glyph
   unicode="&lt;"
   horiz-adv-x="596"
   d="M46,221l488,-221l0,120l-347,145l0,2l347,145l0,121l-488,-221z"
   id="glyph49621" />
<glyph
   unicode="≤"
   horiz-adv-x="596"
   d="M540,123l0,112l-340,109l0,2l340,109l0,112l-484,-171l0,-102M540,0l0,96l-484,0l0,-96z"
   id="glyph49623" />
<glyph
   unicode="¬"
   horiz-adv-x="596"
   d="M32,432l0,-103l410,0l0,-229l106,0l0,332z"
   id="glyph49625" />
<glyph
   unicode="◊"
   horiz-adv-x="593"
   d="M562,324l-122,364l-122,0l-254,-364l121,-363l122,0M426,321l-133,-203C287,108 278,94 272,84l-3,0C268,94 264,108 261,118l-62,210l133,203C339,540 348,555 354,565l2,0C357,555 361,540 364,531z"
   id="glyph49627" />
<glyph
   unicode="ł"
   horiz-adv-x="278"
   d="M173,0l65,341l75,50l24,126l-75,-50l45,238l-163,0l-68,-356l-69,-46l-24,-126l69,46l-43,-223z"
   id="glyph49629" />
<glyph
   unicode="m"
   horiz-adv-x="793"
   d="M163,0l41,224C221,317 260,371 296,371C318,371 327,353 327,327C327,309 324,289 320,268l-50,-268l157,0l43,224C488,319 523,371 559,371C582,371 593,354 593,330C593,311 590,290 586,268l-50,-268l160,0l53,285C754,314 759,355 759,375C759,451 724,502 646,502C587,502 530,475 490,420C485,458 452,502 383,502C322,502 267,477 226,420l-2,0l6,72l-139,0C84,445 76,389 64,328l-61,-328z"
   id="glyph49631" />
<glyph
   unicode="¯"
   horiz-adv-x="400"
   d="M157,667l-18,-85l244,0l18,85z"
   id="glyph49633" />
<glyph
   unicode="−"
   horiz-adv-x="596"
   d="M42,319l0,-103l516,0l0,103z"
   id="glyph49635" />
<glyph
   unicode="µ"
   horiz-adv-x="541"
   d="M258,492l-163,0l-94,-493C-17,-100 -21,-174 -15,-196l146,0C131,-157 141,-76 152,-19l6,33C170,3 189,-4 213,-4C261,-4 293,27 317,68l3,0C332,18 359,-10 415,-10C440,-10 456,-6 467,-1l33,118C474,118 463,127 471,168l62,324l-164,0l-55,-286C311,194 306,181 302,174C289,148 267,121 241,121C209,121 190,139 203,210z"
   id="glyph49637" />
<glyph
   unicode="×"
   horiz-adv-x="596"
   d="M30,452l189,-190l-187,-187l71,-75l186,190l187,-190l73,75l-189,188l189,189l-73,74l-185,-192l-190,192z"
   id="glyph49639" />
<glyph
   unicode="n"
   horiz-adv-x="542"
   d="M167,0l43,223C229,323 268,370 304,370C329,370 337,352 337,326C337,310 335,293 332,277l-52,-277l163,0l55,286C502,313 507,350 507,374C507,448 473,502 388,502C329,502 274,477 231,422l-2,0l7,70l-143,0C86,445 78,389 66,328l-62,-328z"
   id="glyph49641" />
<glyph
   unicode="ń"
   horiz-adv-x="542"
   d="M167,0l43,223C229,323 268,370 304,370C329,370 337,352 337,326C337,310 335,293 332,277l-52,-277l163,0l55,286C502,313 507,350 507,374C507,448 473,502 388,502C329,502 274,477 231,422l-2,0l7,70l-143,0C86,445 78,389 66,328l-62,-328M353,701l-92,-151l117,0l127,151z"
   id="glyph49643" />
<glyph
   unicode="ŉ"
   horiz-adv-x="542"
   d="M167,0l42,223C228,323 267,370 303,370C328,370 337,352 337,326C337,310 335,293 332,277l-53,-277l164,0l55,286C502,313 507,350 507,374C507,448 473,502 388,502C329,502 273,477 231,422l-3,0l7,70l-143,0C85,445 77,389 65,328l-62,-328M68,537C118,540 208,582 208,676C208,704 194,728 183,739l-110,-19C84,709 90,693 90,673C90,644 69,617 46,609z"
   id="glyph49645" />
<glyph
   unicode="ň"
   horiz-adv-x="542"
   d="M167,0l43,223C229,323 268,370 304,370C329,370 337,352 337,326C337,310 335,293 332,277l-52,-277l163,0l55,286C502,313 507,350 507,374C507,448 473,502 388,502C329,502 274,477 231,422l-2,0l7,70l-143,0C86,445 78,389 66,328l-62,-328M369,550l119,151l-111,0l-51,-70l-2,0l-34,70l-102,0l72,-151z"
   id="glyph49647" />
<glyph
   unicode="ņ"
   horiz-adv-x="542"
   d="M167,0l42,223C228,323 267,370 303,370C328,370 337,352 337,326C337,310 335,293 332,277l-53,-277l164,0l55,286C502,313 507,350 507,374C507,448 473,502 388,502C328,502 273,477 231,422l-2,0l6,70l-142,0C85,445 77,389 65,328l-62,-328M133,-242C209,-239 306,-198 306,-104C306,-75 292,-51 281,-40l-117,-19C174,-70 183,-86 183,-106C183,-142 147,-164 116,-170z"
   id="glyph49649" />
<glyph
   unicode="9"
   horiz-adv-x="527"
   d="M44,-8C66,-9 81,-10 115,-9C204,-5 295,24 358,75C445,144 523,272 525,438C525,557 465,660 318,660C173,660 57,539 57,395C57,294 124,225 222,225C259,225 300,236 326,259l2,-1C309,220 277,185 234,159C202,141 163,130 125,128C99,126 84,126 66,128M305,537C344,537 363,506 363,465C363,450 362,427 358,413C353,391 348,380 343,372C334,361 311,342 280,342C247,342 223,370 223,414C223,468 257,537 304,537z"
   id="glyph49651" />
<glyph
   unicode="₉"
   horiz-adv-x="348"
   d="M-21,-149C-3,-150 15,-152 30,-152C89,-150 153,-134 197,-100C252,-58 301,12 301,110C301,188 253,252 157,252C64,252 -17,184 -17,94C-17,24 34,-13 94,-13C116,-13 142,-8 157,3l2,-1C151,-13 131,-33 103,-44C85,-52 65,-55 45,-56C26,-57 6,-55 -5,-54M148,165C170,165 182,148 182,128C182,119 181,109 180,104C178,90 174,80 170,76C164,69 155,64 139,64C120,64 105,78 105,102C105,134 123,165 147,165z"
   id="glyph49653" />
<glyph
   unicode=""
   horiz-adv-x="522"
   d="M251,198C221,198 199,223 199,265C199,325 235,379 276,379C310,379 329,351 329,309C329,273 316,235 300,219C285,206 270,198 252,198M44,-123C58,-124 80,-123 107,-121C347,-93 489,84 489,287C489,414 411,506 291,506C142,506 34,388 34,254C34,160 91,89 186,89C226,89 263,105 283,123l2,-1C261,70 197,21 108,8C80,3 55,2 37,1z"
   id="glyph49655" />
<glyph
   unicode="⁹"
   horiz-adv-x="348"
   d="M85,401C103,400 121,398 136,398C195,400 259,416 303,450C358,492 407,562 407,660C407,737 359,801 263,801C170,801 89,733 89,643C89,574 140,537 200,537C222,537 248,542 263,553l2,-1C257,537 237,517 209,506C191,498 171,495 151,494C132,493 112,495 101,496M254,714C276,714 288,697 288,677C288,668 287,659 286,653C284,640 280,630 276,626C270,619 261,614 245,614C226,614 211,628 211,651C211,684 229,714 253,714z"
   id="glyph49657" />
<glyph
   unicode="≠"
   horiz-adv-x="596"
   d="M556,107l0,103l-243,0l72,114l171,0l0,103l-105,0l61,95l-108,0l-58,-95l-306,0l0,-103l240,0l-72,-114l-168,0l0,-103l102,0l-60,-95l107,0l58,95z"
   id="glyph49659" />
<glyph
   unicode="ñ"
   horiz-adv-x="542"
   d="M167,0l43,223C229,323 268,370 304,370C329,370 337,352 337,326C337,310 335,293 332,277l-52,-277l163,0l55,286C502,313 507,350 507,374C507,448 473,502 388,502C329,502 274,477 231,422l-2,0l6,70l-143,0C85,445 77,389 65,328l-62,-328M264,556C269,583 279,601 290,601C300,601 311,595 326,583C339,573 361,564 387,564C438,564 473,600 487,694l-74,0C403,659 396,650 383,650C374,650 362,660 347,670C333,679 315,689 287,689C233,689 199,639 187,556z"
   id="glyph49661" />
<glyph
   unicode="ν"
   horiz-adv-x="473"
   d="M28,492C51,344 72,164 91,0l155,0C361,149 463,327 482,443C484,459 485,478 484,492l-157,0C327,472 326,456 322,437C307,349 269,259 218,162l-4,0C213,205 212,245 211,287C210,355 206,434 202,492z"
   id="glyph49663" />
<glyph
   unicode="#"
   horiz-adv-x="527"
   d="M220,275l33,104l80,0l-32,-104M133,0l55,179l81,0l-57,-179l96,0l56,179l95,0l17,96l-80,0l32,104l92,0l17,96l-79,0l56,175l-95,0l-55,-175l-82,0l56,175l-94,0l-56,-175l-95,0l-17,-96l83,0l-34,-104l-94,0l-17,-96l80,0l-57,-179z"
   id="glyph49665" />
<glyph
   unicode="o"
   horiz-adv-x="534"
   d="M226,-10C391,-10 509,124 509,307C509,409 445,502 312,502C140,502 25,359 25,184C25,75 96,-10 225,-10M246,114C208,114 192,146 192,188C191,254 224,378 289,378C328,378 342,348 342,312C342,236 310,114 247,114z"
   id="glyph49667" />
<glyph
   unicode="ó"
   horiz-adv-x="534"
   d="M226,-10C391,-10 509,124 509,307C509,409 445,502 312,502C140,502 25,359 25,184C25,75 96,-10 225,-10M246,114C208,114 192,146 192,188C191,254 224,378 289,378C328,378 342,348 342,312C342,236 310,114 247,114M340,701l-92,-151l117,0l128,151z"
   id="glyph49669" />
<glyph
   unicode="ŏ"
   horiz-adv-x="534"
   d="M226,-10C391,-10 509,124 509,307C509,409 445,502 311,502C140,502 25,359 25,184C25,75 96,-10 225,-10M245,114C207,114 192,146 192,188C191,254 224,378 288,378C327,378 342,348 342,312C342,236 309,114 246,114M219,689C210,610 244,557 335,557C421,557 469,608 481,689l-82,0C393,664 378,637 342,637C309,637 301,660 298,689z"
   id="glyph49671" />
<glyph
   unicode="ô"
   horiz-adv-x="534"
   d="M226,-10C391,-10 509,124 509,307C509,409 445,502 312,502C140,502 25,359 25,184C25,75 96,-10 225,-10M246,114C208,114 192,146 192,188C191,254 224,378 289,378C328,378 342,348 342,312C342,236 310,114 247,114M290,701l-120,-151l111,0l52,71l2,0l34,-71l102,0l-72,151z"
   id="glyph49673" />
<glyph
   unicode="ö"
   horiz-adv-x="534"
   d="M226,-10C391,-10 509,124 509,307C509,409 445,502 311,502C140,502 25,359 25,184C25,75 96,-10 225,-10M245,114C207,114 192,146 192,188C191,254 224,378 288,378C327,378 342,348 342,312C342,236 309,114 246,114M226,548C270,548 305,579 305,629C305,672 276,703 233,703C189,703 153,671 153,622C153,576 187,548 225,548M431,548C475,548 510,579 510,629C510,672 481,703 438,703C394,703 358,671 358,622C358,576 392,548 430,548z"
   id="glyph49675" />
<glyph
   unicode="œ"
   horiz-adv-x="783"
   d="M703,144C664,128 628,117 577,117C542,116 512,125 493,142C483,151 477,163 477,176C625,170 768,212 768,356C768,430 711,502 603,502C536,502 475,472 437,427l-2,0C407,479 353,502 286,502C146,502 24,380 24,192C24,70 102,-10 216,-10C276,-10 336,12 376,65l2,0C415,9 476,-10 540,-10C586,-10 654,-3 710,27M243,115C209,115 191,148 191,192C191,271 224,381 287,381C328,381 339,344 339,306C339,233 310,115 244,115M619,340C619,305 557,291 493,295C500,335 526,382 571,382C608,382 619,363 619,341z"
   id="glyph49677" />
<glyph
   unicode="˛"
   horiz-adv-x="400"
   d="M118,2C94,-25 57,-77 57,-129C57,-187 94,-220 160,-220C195,-220 240,-210 272,-185l-12,79C250,-109 232,-114 213,-114C188,-114 173,-100 173,-77C173,-57 186,-28 210,2z"
   id="glyph49679" />
<glyph
   unicode="ò"
   horiz-adv-x="534"
   d="M226,-10C391,-10 509,124 509,307C509,409 445,502 312,502C140,502 25,359 25,184C25,75 96,-10 225,-10M246,114C208,114 192,146 192,188C191,254 224,378 289,378C328,378 342,348 342,312C342,236 310,114 247,114M167,701l103,-151l114,0l-66,151z"
   id="glyph49681" />
<glyph
   unicode="ő"
   horiz-adv-x="534"
   d="M226,-10C391,-10 509,124 509,307C509,409 445,502 312,502C140,502 25,359 25,184C25,75 96,-10 225,-10M246,114C208,114 192,146 192,188C191,254 224,378 289,378C328,378 342,348 342,312C342,236 310,114 247,114M249,701l-79,-152l94,0l118,152M427,701l-79,-152l94,0l118,152z"
   id="glyph49683" />
<glyph
   unicode="ō"
   horiz-adv-x="534"
   d="M226,-10C391,-10 509,124 509,307C509,409 445,502 312,502C140,502 25,359 25,184C25,75 96,-10 225,-10M246,114C208,114 192,146 192,188C191,254 224,378 289,378C328,378 342,348 342,312C342,236 310,114 247,114M225,667l-18,-85l244,0l18,85z"
   id="glyph49685" />
<glyph
   unicode="ω"
   horiz-adv-x="697"
   d="M479,492l0,-3C502,452 510,401 510,353C510,250 479,126 428,126C409,126 401,143 401,165C401,182 407,207 411,230l31,141l-147,0l-28,-157C259,165 246,126 219,126C196,126 186,152 186,193C186,318 250,433 301,489l1,3l-154,0C98,448 24,319 23,181C23,53 93,-10 176,-10C242,-10 283,23 311,62l4,0C333,19 372,-10 429,-10C579,-10 668,163 668,317C668,395 645,463 621,492z"
   id="glyph49687" />
<glyph
   unicode="ώ"
   horiz-adv-x="694"
   d="M421,701l-92,-151l112,0l128,151M480,492l0,-3C503,452 511,401 511,353C511,250 480,126 429,126C410,126 402,143 402,165C402,182 408,207 412,230l31,141l-147,0l-28,-157C260,165 247,126 220,126C197,126 187,152 187,193C187,318 251,433 302,489l1,3l-154,0C99,448 25,319 24,181C24,53 94,-10 177,-10C243,-10 284,23 312,62l4,0C334,19 373,-10 430,-10C580,-10 669,163 669,317C669,395 646,463 622,492z"
   id="glyph49689" />
<glyph
   unicode="ο"
   horiz-adv-x="534"
   d="M225,-10C389,-10 507,124 507,307C507,409 443,502 310,502C139,502 24,359 24,184C24,75 95,-10 224,-10M244,114C207,114 191,146 191,188C190,254 223,378 287,378C326,378 340,348 340,312C340,236 308,114 245,114z"
   id="glyph49691" />
<glyph
   unicode="ό"
   horiz-adv-x="534"
   d="M341,701l-91,-151l110,0l128,151M225,-10C389,-10 507,124 507,307C507,409 443,502 310,502C139,502 24,359 24,184C24,75 95,-10 224,-10M244,114C207,114 191,146 191,188C190,254 223,378 287,378C326,378 340,348 340,312C340,236 308,114 245,114z"
   id="glyph49693" />
<glyph
   unicode="1"
   horiz-adv-x="527"
   d="M166,0l159,0l123,650l-136,0l-182,-78l2,-128l127,54l2,0z"
   id="glyph49695" />
<glyph
   unicode="½"
   horiz-adv-x="804"
   d="M242,265l74,390l-111,0l-124,-48l9,-89l77,32l2,0l-55,-285M183,-10l488,670l-94,0l-488,-670M714,0l18,97l-120,0l0,3l20,14C692,158 765,211 765,291C765,354 713,395 633,395C578,395 528,378 493,355l14,-85C530,286 559,296 587,296C616,296 630,282 630,263C630,224 577,182 510,129l-75,-64l-12,-65z"
   id="glyph49697" />
<glyph
   unicode="₁"
   horiz-adv-x="273"
   d="M151,-145l74,390l-111,0l-124,-48l9,-88l77,31l1,0l-54,-285z"
   id="glyph49699" />
<glyph
   unicode=""
   horiz-adv-x="394"
   d="M359,492l-136,0l-176,-73l2,-130l121,51l2,0l-64,-340l158,0z"
   id="glyph49701" />
<glyph
   unicode="¼"
   horiz-adv-x="804"
   d="M672,0l16,83l47,0l16,84l-47,0l43,225l-149,0l-196,-234l-14,-75l182,0l-16,-83M586,167l-70,0l-2,1l52,67C581,253 597,274 612,297l3,0C609,273 601,248 597,223M246,265l75,390l-112,0l-123,-48l8,-89l78,32l1,0l-54,-285M203,-10l485,670l-97,0l-485,-670z"
   id="glyph49703" />
<glyph
   unicode="¹"
   horiz-adv-x="273"
   d="M257,406l74,389l-111,0l-124,-48l9,-88l77,31l1,0l-54,-284z"
   id="glyph49705" />
<glyph
   unicode="ª"
   horiz-adv-x="390"
   d="M361,267C361,292 362,332 368,367l35,202C376,579 331,590 282,590C129,590 62,483 62,374C62,301 102,260 156,260C195,260 230,276 257,313l1,0C258,298 258,283 258,267M262,398C255,374 236,350 213,350C190,350 178,369 178,397C178,435 203,507 255,507C263,507 271,506 279,502z"
   id="glyph49707" />
<glyph
   unicode="º"
   horiz-adv-x="374"
   d="M243,590C135,590 56,508 56,391C56,317 112,260 195,260C299,260 384,331 384,458C384,533 332,590 244,590M235,507C258,507 268,487 268,462C268,410 247,343 209,343C185,343 172,363 172,389C172,435 193,507 234,507z"
   id="glyph49709" />
<glyph
   unicode="ø"
   horiz-adv-x="534"
   d="M53,-58l64,76C146,-1 181,-10 233,-10C382,-10 508,113 508,306C508,350 496,396 464,436l59,71l-48,41l-61,-71C385,494 350,502 309,502C141,502 25,360 25,187C25,129 41,90 69,59l-60,-73M192,193l-3,2C189,206 190,219 191,231C194,282 225,384 287,384C305,384 316,379 324,367M340,292l4,0C344,278 343,266 342,254C338,193 307,108 247,108C229,108 217,114 210,127z"
   id="glyph49711" />
<glyph
   unicode="ǿ"
   horiz-adv-x="534"
   d="M53,-58l64,76C146,-1 181,-10 233,-10C382,-10 508,113 508,306C508,350 496,396 464,436l59,71l-48,41l-61,-71C385,494 350,502 309,502C141,502 25,360 25,187C25,129 41,90 69,59l-60,-73M192,193l-3,2C189,206 190,219 191,231C194,282 225,384 287,384C305,384 316,379 324,367M340,292l4,0C344,278 343,266 342,254C338,193 307,108 247,108C229,108 217,114 210,127M347,701l-92,-151l117,0l128,151z"
   id="glyph49713" />
<glyph
   unicode="õ"
   horiz-adv-x="534"
   d="M226,-10C391,-10 509,124 509,307C509,409 445,502 312,502C140,502 25,359 25,184C25,75 96,-10 225,-10M245,114C207,114 191,146 191,188C191,254 224,378 289,378C328,378 342,348 342,312C342,236 310,114 246,114M252,556C257,583 267,601 278,601C288,601 299,595 314,583C328,573 349,564 375,564C427,564 462,600 475,694l-74,0C391,659 385,650 372,650C362,650 350,660 336,670C321,679 303,689 275,689C221,689 187,639 176,556z"
   id="glyph49715" />
<glyph
   unicode="p"
   horiz-adv-x="541"
   d="M129,-196l39,203l2,0C186,-3 217,-10 248,-10C412,-10 516,152 516,321C516,418 473,502 370,502C318,502 265,476 229,428l-2,0l7,67l-144,0C84,444 72,363 62,307l-96,-503M213,249C225,319 259,368 301,368C336,368 346,336 346,304C346,224 302,112 239,112C218,112 204,119 192,130z"
   id="glyph49717" />
<glyph
   unicode="¶"
   horiz-adv-x="524"
   d="M236,-51l121,636l67,0l-122,-636l97,0l137,716C509,671 455,674 395,674C200,674 71,586 71,422C71,331 127,279 188,262C192,261 196,260 199,259l-60,-310z"
   id="glyph49719" />
<glyph
   unicode="("
   horiz-adv-x="307"
   d="M250,691C145,580 52,391 52,151C52,54 71,-40 105,-116l114,0C186,-19 181,59 181,157C181,377 271,572 370,691z"
   id="glyph49721" />
<glyph
   unicode="₍"
   horiz-adv-x="199"
   d="M109,283C41,212 -9,98 -9,-43C-9,-98 5,-157 23,-199l80,0C85,-144 81,-96 81,-37C81,89 132,207 191,283z"
   id="glyph49723" />
<glyph
   unicode="⁽"
   horiz-adv-x="199"
   d="M215,833C147,762 97,648 97,507C97,452 111,393 129,351l80,0C191,406 187,454 187,513C187,639 238,757 297,833z"
   id="glyph49725" />
<glyph
   unicode=")"
   horiz-adv-x="307"
   d="M73,-116C176,-4 269,185 269,426C269,522 251,616 218,691l-116,0C135,595 140,518 140,421C140,199 48,4 -49,-116z"
   id="glyph49727" />
<glyph
   unicode="₎"
   horiz-adv-x="199"
   d="M13,-199C80,-126 130,-12 130,128C130,182 117,242 99,283l-81,0C36,228 39,181 39,122C39,-5 -13,-122 -71,-199z"
   id="glyph49729" />
<glyph
   unicode="⁾"
   horiz-adv-x="199"
   d="M119,351C186,424 236,538 236,678C236,732 223,792 205,833l-81,0C142,778 145,731 145,672C145,545 93,428 35,351z"
   id="glyph49731" />
<glyph
   unicode="∂"
   horiz-adv-x="551"
   d="M152,571C171,583 219,602 272,602C346,602 384,550 385,471C385,447 383,418 380,405l-1,0C365,427 333,456 272,456C127,456 24,328 24,187C24,75 90,-10 216,-10C456,-10 543,270 543,453C543,629 453,735 307,735C217,735 151,700 123,682M239,113C209,113 187,136 187,186C186,244 223,332 285,332C320,332 340,300 345,283C329,193 288,113 240,113z"
   id="glyph49733" />
<glyph
   unicode="%"
   horiz-adv-x="842"
   d="M264,660C139,660 54,543 54,411C54,313 115,259 200,259C313,259 406,365 406,513C406,596 357,660 265,660M251,570C277,570 287,549 287,521C287,482 265,349 210,349C187,349 173,370 173,403C173,452 198,570 250,570M237,-10l478,669l-90,0l-479,-669M670,392C546,392 461,275 461,143C461,45 522,-9 607,-9C719,-9 812,97 812,245C812,328 763,392 671,392M657,302C683,302 693,281 693,254C693,214 671,81 616,81C594,81 580,102 580,136C580,185 604,302 656,302z"
   id="glyph49735" />
<glyph
   unicode="."
   horiz-adv-x="268"
   d="M106,-9C167,-9 214,35 214,103C214,159 178,198 122,198C61,198 16,144 16,85C16,30 50,-9 105,-9z"
   id="glyph49737" />
<glyph
   unicode="·"
   horiz-adv-x="268"
   d="M125,159C186,159 233,203 233,271C233,327 197,366 141,366C80,366 35,312 35,253C35,198 69,159 124,159z"
   id="glyph49739" />
<glyph
   unicode=""
   horiz-adv-x="177"
   d="M28,-151C71,-151 103,-121 103,-75C103,-37 77,-11 40,-11C-3,-11 -34,-47 -34,-88C-34,-125 -10,-151 27,-151z"
   id="glyph49741" />
<glyph
   unicode=""
   horiz-adv-x="177"
   d="M134,400C177,400 209,430 209,476C209,514 183,540 146,540C103,540 72,504 72,463C72,426 96,400 133,400z"
   id="glyph49743" />
<glyph
   unicode="‰"
   horiz-adv-x="1222"
   d="M264,660C139,660 54,543 54,411C54,313 115,259 200,259C313,259 406,365 406,513C406,596 357,660 265,660M251,570C277,570 287,549 287,521C287,482 265,349 210,349C187,349 173,370 173,404C173,453 198,570 250,570M237,-10l478,669l-90,0l-479,-669M670,392C546,392 461,275 461,143C461,45 522,-9 607,-9C719,-9 812,97 812,245C812,328 763,392 671,392M657,302C683,302 693,281 693,253C693,214 671,81 616,81C594,81 580,102 580,136C580,185 604,302 656,302M1051,392C926,392 841,275 841,143C841,45 902,-9 987,-9C1100,-9 1193,97 1193,245C1193,328 1144,392 1052,392M1038,302C1064,302 1074,281 1074,253C1074,214 1052,81 997,81C974,81 960,102 960,136C960,185 985,302 1037,302z"
   id="glyph49745" />
<glyph
   unicode="φ"
   horiz-adv-x="681"
   d="M240,103C205,117 182,154 182,212C182,318 240,392 286,424l-58,76C148,478 24,378 24,208C24,69 131,2 218,-10l-36,-186l146,0l35,186C493,-10 654,102 654,302C654,418 573,502 468,502C372,502 301,439 276,299M432,354C436,375 445,385 458,385C480,385 498,353 498,303C498,206 452,107 384,102z"
   id="glyph49747" />
<glyph
   unicode="π"
   horiz-adv-x="565"
   d="M563,364l28,128l-373,0C101,492 54,477 27,451l2,-94C52,363 84,364 112,364C107,339 101,310 94,282C67,174 29,63 -9,0l157,0C182,44 222,157 252,284C258,311 264,338 270,364l74,0l-40,-214C291,85 284,20 292,0l157,0C447,32 455,89 467,153l40,211z"
   id="glyph49749" />
<glyph
   unicode="+"
   horiz-adv-x="596"
   d="M244,532l0,-213l-204,0l0,-103l204,0l0,-216l108,0l0,216l204,0l0,103l-204,0l0,213z"
   id="glyph49751" />
<glyph
   unicode="±"
   horiz-adv-x="596"
   d="M236,577l0,-163l-204,0l0,-103l204,0l0,-166l108,0l0,166l204,0l0,103l-204,0l0,163M32,103l0,-103l516,0l0,103z"
   id="glyph49753" />
<glyph
   unicode="∏"
   horiz-adv-x="620"
   d="M640,509l27,141l-561,0l-28,-141l66,0l-115,-599l152,0l115,599l126,0l-115,-599l153,0l114,599z"
   id="glyph49755" />
<glyph
   unicode="ψ"
   horiz-adv-x="683"
   d="M510,492C513,476 515,447 515,413C515,215 453,105 383,103l97,509l-148,0l-96,-508C205,107 184,133 184,184C184,211 186,235 192,264l25,132C225,442 227,476 218,492l-147,0C73,456 65,409 53,348l-15,-81C31,234 29,196 29,176C29,54 122,0 214,-10l-36,-186l149,0l35,186C559,0 668,175 668,397C668,438 663,468 655,492z"
   id="glyph49757" />
<glyph
   unicode="q"
   horiz-adv-x="537"
   d="M400,-196l126,669C477,486 416,502 346,502C117,502 21,320 21,169C21,60 78,-10 161,-10C211,-10 260,14 293,65l2,0l-58,-261M320,234C306,166 271,122 234,122C207,122 188,145 188,190C188,265 233,377 308,377C323,377 336,376 346,371z"
   id="glyph49759" />
<glyph
   unicode="?"
   horiz-adv-x="422"
   d="M271,228C273,236 275,244 277,251C287,292 307,322 340,358C389,409 445,465 445,547C445,623 384,686 274,686C201,686 143,666 109,645l15,-118C150,543 184,552 224,552C263,551 275,534 275,511C275,482 240,452 205,411C155,356 127,307 119,253C118,245 117,237 116,228M160,-10C221,-10 268,34 268,99C268,151 232,190 177,190C118,190 73,136 73,80C73,29 107,-10 159,-10z"
   id="glyph49761" />
<glyph
   unicode="¿"
   horiz-adv-x="422"
   d="M153,258l-7,-23C136,195 116,164 82,130C23,70 -22,15 -22,-60C-22,-136 39,-199 149,-199C223,-199 281,-179 315,-158l-15,118C274,-56 240,-65 200,-65C161,-64 148,-47 148,-24C148,4 184,35 220,75C269,130 297,179 305,234C306,242 307,250 308,258M266,495C205,495 158,451 158,386C158,334 194,295 248,295C309,295 353,349 353,405C353,456 319,495 267,495z"
   id="glyph49763" />
<glyph
   unicode="&quot;"
   horiz-adv-x="397"
   d="M110,690l-30,-286l99,0l75,286M309,690l-30,-286l98,0l76,286z"
   id="glyph49765" />
<glyph
   unicode="„"
   horiz-adv-x="448"
   d="M42,-100C110,-11 164,83 214,187l-160,-10C26,83 -16,-11 -66,-110M257,-100C325,-11 379,83 429,187l-161,-10C240,83 199,-11 149,-110z"
   id="glyph49767" />
<glyph
   unicode="“"
   horiz-adv-x="448"
   d="M203,413C231,504 271,594 319,690l-104,-10C149,594 97,504 49,403M404,413C432,504 471,594 520,690l-104,-10C350,594 298,504 250,403z"
   id="glyph49769" />
<glyph
   unicode="”"
   horiz-adv-x="448"
   d="M162,680C134,589 95,499 46,403l104,10C216,499 268,589 316,690M363,680C335,589 295,499 247,403l104,10C417,499 468,589 517,690z"
   id="glyph49771" />
<glyph
   unicode="‘"
   horiz-adv-x="252"
   d="M205,413C233,504 273,594 321,690l-104,-10C151,594 99,504 51,403z"
   id="glyph49773" />
<glyph
   unicode="’"
   horiz-adv-x="252"
   d="M165,680C137,589 97,499 49,403l104,10C219,499 270,589 319,690z"
   id="glyph49775" />
<glyph
   unicode="‚"
   horiz-adv-x="252"
   d="M49,-100C117,-11 171,83 221,187l-161,-10C32,83 -9,-11 -59,-110z"
   id="glyph49777" />
<glyph
   unicode="'"
   horiz-adv-x="199"
   d="M111,690l-30,-286l99,0l75,286z"
   id="glyph49779" />
<glyph
   unicode="r"
   horiz-adv-x="368"
   d="M167,0l34,182C218,270 257,341 342,341C350,341 359,341 365,340l32,161C388,501 380,502 370,502C311,502 259,464 222,400l-3,0C222,431 224,461 226,492l-141,0C79,448 73,369 60,298l-57,-298z"
   id="glyph49781" />
<glyph
   unicode="ŕ"
   horiz-adv-x="368"
   d="M167,0l34,182C218,270 257,341 342,341C350,341 359,341 365,340l32,161C388,501 380,502 370,502C311,502 259,464 222,400l-3,0C222,431 224,461 226,492l-141,0C79,448 73,369 60,298l-57,-298M256,701l-92,-151l117,0l128,151z"
   id="glyph49783" />
<glyph
   unicode="√"
   horiz-adv-x="553"
   d="M678,844l-109,0l-247,-679C307,126 295,89 288,66l-1,0C285,90 284,126 279,160l-40,290l-191,-74l19,-73l75,29l72,-422l111,0z"
   id="glyph49785" />
<glyph
   unicode="ř"
   horiz-adv-x="368"
   d="M168,0l34,182C218,270 257,341 342,341C350,341 360,341 366,340l31,161C389,501 380,502 371,502C312,502 259,464 223,400l-3,0C223,431 225,461 227,492l-141,0C80,448 74,369 61,298l-57,-298M297,550l120,151l-111,0l-52,-70l-2,0l-33,70l-102,0l72,-151z"
   id="glyph49787" />
<glyph
   unicode="ŗ"
   horiz-adv-x="368"
   d="M167,0l34,182C218,270 257,341 342,341C350,341 360,341 366,340l31,161C389,501 380,502 371,502C312,502 259,464 223,400l-4,0C222,431 224,461 226,492l-140,0C80,448 74,369 61,298l-57,-298M10,-242C86,-239 183,-198 183,-104C183,-75 169,-51 158,-40l-117,-19C51,-70 60,-86 60,-106C60,-142 24,-164 -7,-170z"
   id="glyph49789" />
<glyph
   unicode="®"
   horiz-adv-x="401"
   d="M238,489l14,0C265,489 273,482 275,467C278,455 281,442 286,436l57,0C341,441 337,451 332,473C327,495 318,507 300,512l0,2C322,520 336,534 336,549C336,564 329,576 319,582C308,590 293,595 256,595C222,595 195,590 186,589l0,-153l52,0M240,557C243,557 249,558 254,558C267,558 277,553 277,541C277,531 269,524 252,524l-12,0M257,686C160,686 81,609 81,514C81,419 160,342 257,342C355,342 433,419 433,514C433,609 355,686 258,686M256,640C326,640 378,584 378,514C378,444 326,387 256,388C188,388 137,444 137,513C137,584 188,640 255,640z"
   id="glyph49791" />
<glyph
   unicode="ρ"
   horiz-adv-x="540"
   d="M135,-196C135,-161 144,-91 157,-21l10,48l2,0C185,6 223,-10 270,-10C395,-10 515,132 515,307C515,411 447,502 323,502C267,502 220,491 169,455C112,414 64,348 36,200l-39,-214C-23,-119 -24,-174 -19,-196M209,246C226,323 254,371 296,371C333,371 349,339 349,299C349,217 305,114 254,114C218,114 198,144 198,164C198,183 200,199 203,214z"
   id="glyph49793" />
<glyph
   unicode="˚"
   horiz-adv-x="400"
   d="M280,737C205,737 155,694 157,631C159,575 205,540 266,540C337,540 388,579 390,643C390,704 343,737 281,737M275,684C306,684 317,662 317,640C317,617 302,593 270,593C242,593 230,615 230,635C230,660 245,684 274,684z"
   id="glyph49795" />
<glyph
   unicode="s"
   horiz-adv-x="404"
   d="M-10,26C18,7 75,-8 135,-9C271,-10 365,53 365,167C365,229 316,270 260,302C227,319 210,333 210,348C210,371 232,383 266,383C304,383 336,373 356,364l36,114C368,491 325,502 267,502C136,502 46,431 46,327C46,269 88,228 142,198C183,176 197,162 197,143C197,124 182,109 149,109C103,108 55,126 28,140z"
   id="glyph49797" />
<glyph
   unicode="ś"
   horiz-adv-x="404"
   d="M-10,26C18,7 75,-8 135,-9C271,-10 365,53 365,167C365,229 316,270 260,302C227,319 210,333 210,348C210,371 232,383 266,383C304,383 336,373 356,364l36,114C368,491 325,502 267,502C136,502 46,431 46,327C46,269 88,228 142,198C183,176 197,162 197,143C197,124 182,109 149,109C103,108 55,126 28,140M269,701l-92,-151l117,0l128,151z"
   id="glyph49799" />
<glyph
   unicode="š"
   horiz-adv-x="404"
   d="M-10,26C18,7 75,-8 135,-9C271,-10 365,53 365,167C365,229 316,270 260,302C227,319 210,333 210,348C210,371 232,383 266,383C304,383 336,373 356,364l36,114C368,491 325,502 267,502C136,502 46,431 46,327C46,269 88,228 142,198C183,176 197,162 197,143C197,124 182,109 149,109C103,108 55,126 28,140M314,550l120,151l-111,0l-51,-70l-2,0l-34,70l-103,0l73,-151z"
   id="glyph49801" />
<glyph
   unicode="ş"
   horiz-adv-x="404"
   d="M392,478C368,491 325,502 267,502C136,502 46,431 46,327C46,269 88,228 142,198C183,176 197,162 197,143C197,124 182,109 149,109C103,108 55,126 28,140l-38,-114C17,7 81,-9 122,-9C123,-9 125,-9 126,-9l-44,-68C137,-81 152,-95 152,-113C152,-131 134,-138 118,-138C101,-138 81,-132 65,-123l-26,-58C54,-193 84,-202 117,-202C170,-202 247,-179 247,-103C247,-74 222,-47 186,-39l25,36C305,16 365,75 365,167C365,229 316,271 260,302C227,319 210,333 210,348C210,371 232,383 266,383C304,383 336,373 356,364z"
   id="glyph49803" />
<glyph
   unicode="ŝ"
   horiz-adv-x="404"
   d="M-10,26C18,7 75,-8 135,-9C271,-10 365,53 365,167C365,229 316,270 260,302C227,319 210,333 210,348C210,371 232,383 266,383C304,383 336,373 356,364l36,114C368,491 325,502 267,502C136,502 46,431 46,327C46,269 88,228 142,198C183,176 197,162 197,143C197,124 182,109 149,109C103,108 55,126 28,140M226,701l-121,-151l112,0l51,71l2,0l34,-71l102,0l-72,151z"
   id="glyph49805" />
<glyph
   unicode="ș"
   horiz-adv-x="404"
   d="M-10,26C18,7 75,-8 135,-9C271,-10 365,53 365,167C365,229 316,270 260,302C227,319 210,333 210,348C210,371 232,383 266,383C304,383 336,373 356,364l36,114C368,491 325,502 267,502C136,502 46,431 46,327C46,269 88,228 142,198C183,176 197,162 197,143C197,124 182,109 149,109C103,108 55,126 28,140M59,-242C135,-239 233,-198 233,-103C233,-75 219,-51 207,-40l-117,-19C100,-70 109,-86 109,-106C109,-142 73,-164 42,-170z"
   id="glyph49807" />
<glyph
   unicode="§"
   horiz-adv-x="540"
   d="M189,333C189,358 213,380 230,387C252,376 293,360 328,345C352,333 372,312 372,283C372,259 355,239 338,229C322,238 284,252 252,265C203,285 189,306 189,332M520,650C481,673 426,684 371,684C251,684 138,624 138,510C138,489 144,464 162,443C96,410 54,355 54,290C54,218 127,171 204,141C266,116 290,100 290,75C290,50 262,31 211,31C156,31 106,51 73,71l-41,-100C83,-63 151,-73 211,-73C325,-73 440,-17 440,106C440,130 432,156 416,172C467,205 509,255 509,325C509,400 449,448 362,478C301,499 282,513 282,533C282,560 310,580 360,580C409,580 452,567 482,553z"
   id="glyph49809" />
<glyph
   unicode=";"
   horiz-adv-x="268"
   d="M50,-110C119,-21 180,82 228,187l-170,-10C30,82 -15,-21 -65,-120M168,300C228,300 275,344 275,409C275,463 239,502 185,502C125,502 80,448 80,391C80,339 114,300 167,300z"
   id="glyph49811" />
<glyph
   unicode="7"
   horiz-adv-x="527"
   d="M115,650l-26,-140l253,0l0,-2C234,339 126,170 18,0l176,0C304,181 414,362 524,541l21,109z"
   id="glyph49813" />
<glyph
   unicode="₇"
   horiz-adv-x="306"
   d="M8,245l-19,-99l154,0l0,-1C107,93 1,-65 -54,-145l131,0C123,-71 240,111 277,169l15,76z"
   id="glyph49815" />
<glyph
   unicode=""
   horiz-adv-x="464"
   d="M472,492l-409,0l-24,-142l234,0l0,-2C196,208 81,42 -25,-96l149,-34C246,30 406,284 454,390z"
   id="glyph49817" />
<glyph
   unicode="⁷"
   horiz-adv-x="306"
   d="M114,795l-19,-99l154,0l0,-1C213,643 107,485 52,405l131,0C229,479 346,661 383,719l15,76z"
   id="glyph49819" />
<glyph
   unicode="σ"
   horiz-adv-x="562"
   d="M465,396C521,387 556,384 577,384l21,118C575,502 535,502 502,502l-85,0C403,502 335,502 305,502C139,502 24,359 24,184C24,75 95,-10 227,-10C389,-10 503,129 503,280C503,313 490,368 464,391M244,114C207,114 191,146 191,188C190,254 221,379 290,379C326,379 340,349 340,312C340,236 308,114 245,114z"
   id="glyph49821" />
<glyph
   unicode="6"
   horiz-adv-x="527"
   d="M501,658C488,659 474,660 450,658C353,653 261,621 191,566C104,498 31,372 31,215C31,96 94,-10 241,-10C392,-10 498,114 498,263C498,358 436,435 344,436C299,436 261,422 230,398l-2,1C257,459 320,511 426,522C446,524 460,525 476,524M247,113C208,113 188,151 188,192C188,203 188,216 191,237C192,245 195,256 200,266C214,293 239,316 270,316C308,316 331,287 331,246C331,193 307,113 248,113z"
   id="glyph49823" />
<glyph
   unicode="₆"
   horiz-adv-x="345"
   d="M286,248C271,249 250,249 231,247C176,243 124,226 84,200C24,161 -27,88 -27,-9C-27,-84 26,-150 120,-150C217,-150 291,-82 291,13C291,68 257,119 188,120C165,120 139,112 123,99l-2,1C135,124 167,150 228,155C242,157 256,156 268,154M125,-65C104,-65 92,-46 92,-28C92,-20 93,-8 97,7C99,11 100,14 103,19C109,29 121,40 136,40C158,40 170,24 170,5C170,-39 150,-65 126,-65z"
   id="glyph49825" />
<glyph
   unicode=""
   horiz-adv-x="522"
   d="M241,115C212,115 190,137 190,185C190,223 200,256 214,273C225,287 240,300 265,300C295,300 321,277 321,232C321,174 288,115 242,115M481,622C337,620 221,561 146,485C59,398 30,281 30,203C30,64 115,-10 230,-10C376,-10 486,105 486,249C486,351 427,411 349,411C303,411 265,392 240,373l-2,1C247,389 257,405 272,419C319,467 402,493 490,499z"
   id="glyph49827" />
<glyph
   unicode="⁶"
   horiz-adv-x="345"
   d="M392,798C377,799 356,799 337,797C282,793 230,776 190,750C130,711 79,638 79,541C79,466 132,400 226,400C323,400 397,468 397,563C397,618 363,669 294,670C271,670 245,662 229,649l-2,1C241,674 273,700 334,705C348,707 362,706 374,704M231,485C210,485 198,504 198,522C198,530 199,542 203,557C205,561 206,564 209,569C215,579 227,590 242,590C264,590 276,574 276,555C276,511 256,485 232,485z"
   id="glyph49829" />
<glyph
   unicode="/"
   horiz-adv-x="312"
   d="M62,-40l342,724l-113,0l-342,-724z"
   id="glyph49831" />
<glyph
   unicode=" "
   horiz-adv-x="171"
   id="glyph49833" />
<glyph
   unicode="£"
   horiz-adv-x="527"
   d="M442,0l24,138l-234,0l0,2C258,156 277,183 288,207C296,226 300,241 303,261l105,0l22,115l-121,0C308,401 309,426 314,452C324,494 351,525 400,525C428,525 449,521 467,511l41,125C490,647 455,660 405,660C271,660 192,583 165,476C157,443 153,410 153,376l-68,0l-22,-115l90,0C154,244 151,227 145,211C127,166 79,115 25,95l-16,-95z"
   id="glyph49835" />
<glyph
   unicode="∑"
   horiz-adv-x="530"
   d="M440,-90l25,143l-260,0l0,4l183,227l-105,220l0,3l238,0l25,143l-434,0l-19,-111l123,-258l-223,-273l-17,-98z"
   id="glyph49837" />
<glyph
   unicode="t"
   horiz-adv-x="345"
   d="M129,583l-17,-91l-59,0l-23,-121l59,0l-35,-182C47,156 44,129 44,104C44,36 88,-9 178,-9C210,-9 248,-6 269,2l22,125C277,126 263,126 252,126C224,126 212,141 212,166C212,178 215,200 218,215l31,156l98,0l23,121l-97,0l25,138z"
   id="glyph49839" />
<glyph
   unicode="τ"
   horiz-adv-x="422"
   d="M319,119C312,119 305,119 299,119C278,119 264,131 264,156C264,167 265,179 268,196l31,167l122,0l28,129l-253,0C78,492 42,472 17,454l1,-97C41,362 62,363 101,363l35,0l-29,-153C101,178 96,139 96,115C96,46 127,-10 229,-10C252,-10 279,-6 293,1z"
   id="glyph49841" />
<glyph
   unicode="ŧ"
   horiz-adv-x="345"
   d="M29,317l-17,-89l49,0l-7,-39C48,156 44,129 44,104C44,36 88,-9 178,-9C210,-9 248,-6 269,2l22,125C277,126 263,126 252,126C224,126 212,141 212,166C212,174 212,186 215,197l6,31l89,0l17,89l-89,0l11,54l98,0l23,121l-97,0l25,138l-169,-47l-17,-91l-59,0l-23,-121l59,0l-11,-54z"
   id="glyph49843" />
<glyph
   unicode="ť"
   horiz-adv-x="345"
   d="M129,583l-17,-91l-59,0l-23,-121l59,0l-35,-182C47,156 44,129 44,104C44,36 88,-9 178,-9C210,-9 248,-6 269,2l21,125C277,126 262,126 252,126C224,126 212,141 212,166C212,178 215,200 218,215l31,156l98,0l23,121l-97,0l25,137M378,533C419,540 497,581 497,663C497,688 484,715 470,727l-106,-19C372,695 377,680 377,660C377,638 364,611 342,599z"
   id="glyph49845" />
<glyph
   unicode="ţ"
   horiz-adv-x="345"
   d="M129,583l-17,-91l-59,0l-23,-121l59,0l-35,-182C47,156 44,129 44,104C44,36 88,-9 178,-9C210,-9 248,-6 269,2l22,125C277,126 263,126 252,126C224,126 212,141 212,166C212,178 215,200 218,215l31,156l98,0l23,121l-97,0l25,138M35,-242C111,-239 208,-198 208,-103C208,-75 194,-51 183,-40l-117,-19C76,-70 85,-86 85,-106C85,-142 49,-164 18,-170z"
   id="glyph49847" />
<glyph
   unicode="θ"
   horiz-adv-x="539"
   d="M229,-10C391,-10 489,168 523,351C531,399 536,446 536,492C536,623 469,715 347,715C193,715 92,567 51,393C38,337 31,279 31,223C31,71 102,-10 228,-10M221,416C243,531 279,598 330,598C362,598 380,565 380,508C380,484 376,453 370,416M348,298C324,170 293,107 243,107C207,107 187,138 187,197C187,222 191,259 199,298z"
   id="glyph49849" />
<glyph
   unicode="þ"
   horiz-adv-x="543"
   d="M-34,-196l163,0l38,202l3,0C188,-3 219,-10 250,-10C400,-10 515,130 517,322C518,425 468,502 372,502C317,502 273,472 251,441l-2,0l45,237l-162,0M210,235C226,322 261,368 301,368C336,368 346,336 346,303C346,218 303,110 238,110C218,110 201,118 190,127z"
   id="glyph49851" />
<glyph
   unicode="3"
   horiz-adv-x="527"
   d="M5,28C33,7 102,-10 181,-10C325,-10 461,68 461,205C461,277 418,328 357,345l1,2C434,368 494,427 494,506C494,605 405,660 289,660C226,660 159,644 118,622l13,-126C157,510 200,522 249,522C299,522 321,501 321,475C321,424 255,404 193,404l-17,0l-24,-125l21,0C251,279 293,254 293,204C293,156 247,128 181,128C124,128 79,146 52,158z"
   id="glyph49853" />
<glyph
   unicode="₃"
   horiz-adv-x="324"
   d="M20,138C40,151 73,162 102,162C130,162 143,151 143,134C143,105 100,97 62,97l-14,0l-14,-75l16,0C97,22 126,5 126,-20C126,-46 97,-62 62,-62C31,-62 -5,-50 -24,-37l-36,-84C-33,-139 17,-150 69,-150C172,-150 258,-103 258,-20C258,24 220,53 183,61l0,2C234,77 276,108 276,160C276,209 221,250 144,250C88,250 43,236 13,218z"
   id="glyph49855" />
<glyph
   unicode=""
   horiz-adv-x="447"
   d="M-33,-109C-2,-122 47,-130 106,-130C262,-130 386,-53 386,75C386,151 333,197 274,211l0,3C339,233 409,278 411,366C411,444 351,502 239,502C171,502 103,479 55,448l21,-109C105,354 147,370 187,370C225,370 247,354 247,328C246,276 159,260 123,258C114,257 106,257 97,256l-26,-120C85,136 99,136 112,136C165,136 216,116 216,73C216,25 161,2 101,2C64,2 22,9 2,15z"
   id="glyph49857" />
<glyph
   unicode="¾"
   horiz-adv-x="804"
   d="M231,-10l484,670l-97,0l-485,-670M105,548C125,561 158,572 187,572C215,572 228,561 228,544C228,515 185,507 147,507l-14,0l-14,-75l16,0C182,432 211,415 211,390C211,364 182,348 147,348C116,348 80,360 61,373l-36,-84C52,271 102,260 154,260C257,260 343,307 343,389C343,434 306,463 268,471l0,2C320,487 361,518 361,570C361,619 306,660 229,660C173,660 128,646 98,628M685,0l16,83l47,0l16,84l-47,0l42,225l-148,0l-196,-234l-14,-75l182,0l-16,-83M599,167l-71,0l-2,1l53,67C594,253 610,274 625,297l3,0C622,273 614,248 609,223z"
   id="glyph49859" />
<glyph
   unicode="³"
   horiz-adv-x="324"
   d="M126,688C146,701 179,712 208,712C236,712 249,701 249,684C249,655 206,647 168,647l-14,0l-14,-75l16,0C203,572 232,555 232,530C232,504 203,488 168,488C137,488 101,500 82,513l-36,-84C73,411 123,400 175,400C278,400 364,447 364,530C364,574 326,603 289,611l0,2C340,627 382,658 382,710C382,759 327,800 250,800C194,800 149,786 119,768z"
   id="glyph49861" />
<glyph
   unicode="˜"
   horiz-adv-x="400"
   d="M203,556C208,583 218,601 229,601C239,601 250,595 264,583C278,573 300,564 326,564C377,564 412,600 426,694l-74,0C342,659 335,650 322,650C312,650 300,660 286,670C271,679 254,689 226,689C172,689 138,639 126,556z"
   id="glyph49863" />
<glyph
   unicode="΄"
   horiz-adv-x="348"
   d="M275,701l-92,-151l111,0l128,151z"
   id="glyph49865" />
<glyph
   unicode="™"
   horiz-adv-x="674"
   d="M102,674l0,-76l67,0l0,-197l94,0l0,197l68,0l0,76M697,401l-12,273l-131,0l-8,-38C540,605 534,577 528,540l-1,0C520,592 517,612 514,636l-6,38l-142,0l-14,-273l85,0l4,102C443,537 443,580 444,622l5,0C455,581 460,534 464,505l13,-99l85,0l18,99C586,535 593,576 601,622l5,0C607,575 606,537 606,503l3,-102z"
   id="glyph49867" />
<glyph
   unicode="2"
   horiz-adv-x="527"
   d="M430,0l26,140l-207,0l0,2l60,46C403,264 502,350 502,482C502,578 438,660 299,660C227,660 157,639 106,612l26,-120C164,511 204,523 256,523C307,523 336,496 336,454C336,384 257,311 148,216l-134,-109l-20,-107z"
   id="glyph49869" />
<glyph
   unicode="₂"
   horiz-adv-x="331"
   d="M232,-145l19,97l-123,0l0,3l20,14C207,12 281,66 281,146C281,209 229,250 145,250C91,250 41,233 7,210l14,-83C45,141 74,151 102,151C132,151 146,137 146,118C146,79 94,36 26,-16l-77,-64l-13,-65z"
   id="glyph49871" />
<glyph
   unicode=""
   horiz-adv-x="466"
   d="M414,134l-76,0C309,134 276,131 240,125l0,4l38,23C361,207 419,269 419,353C419,447 348,504 254,504C169,504 101,474 53,440l31,-103C110,352 151,369 184,369C226,369 248,350 248,311C248,266 178,209 75,142l-76,-48l-18,-94l407,0z"
   id="glyph49873" />
<glyph
   unicode="²"
   horiz-adv-x="331"
   d="M338,405l19,97l-123,0l0,3l20,14C313,562 387,616 387,696C387,759 335,800 251,800C197,800 147,783 113,760l14,-83C151,691 180,701 208,701C238,701 252,687 252,668C252,629 200,586 132,534l-77,-64l-13,-65z"
   id="glyph49875" />
<glyph
   unicode="u"
   horiz-adv-x="540"
   d="M368,492l-44,-238C307,169 272,122 235,122C210,122 201,141 201,163C201,182 204,207 209,231l49,261l-163,0l-52,-272C36,183 32,150 32,120C32,40 68,-10 148,-10C202,-10 256,12 304,71l2,-1l-6,-70l142,0C450,47 458,103 470,164l62,328z"
   id="glyph49877" />
<glyph
   unicode="ú"
   horiz-adv-x="540"
   d="M368,492l-44,-238C307,169 272,122 235,122C210,122 201,141 201,163C201,182 204,207 209,231l49,261l-163,0l-52,-272C36,183 32,150 32,120C32,40 68,-10 148,-10C202,-10 256,12 304,71l2,-1l-6,-70l142,0C450,47 458,103 470,164l62,328M348,701l-92,-151l116,0l128,151z"
   id="glyph49879" />
<glyph
   unicode="ŭ"
   horiz-adv-x="540"
   d="M368,492l-44,-238C307,169 272,122 235,122C210,122 201,141 201,163C201,182 204,207 209,231l49,261l-163,0l-52,-272C36,183 32,150 32,120C32,40 68,-10 148,-10C202,-10 256,12 304,71l2,-1l-6,-70l143,0C451,47 459,103 471,164l62,328M219,689C209,610 244,557 334,557C420,557 468,608 480,689l-82,0C393,664 378,637 341,637C309,637 301,660 298,689z"
   id="glyph49881" />
<glyph
   unicode="û"
   horiz-adv-x="540"
   d="M368,492l-44,-238C307,169 272,122 235,122C210,122 201,141 201,163C201,182 204,207 209,231l49,261l-163,0l-52,-272C36,183 32,150 32,120C32,40 68,-10 148,-10C202,-10 256,12 304,71l2,-1l-6,-70l142,0C450,47 458,103 470,164l62,328M298,701l-120,-151l111,0l52,71l2,0l33,-71l103,0l-73,151z"
   id="glyph49883" />
<glyph
   unicode="ü"
   horiz-adv-x="540"
   d="M368,492l-44,-238C307,169 272,122 235,122C210,122 201,141 201,163C201,182 204,207 209,231l49,261l-163,0l-52,-272C36,183 32,150 32,120C32,40 68,-10 148,-10C202,-10 256,12 304,71l2,-1l-6,-70l143,0C450,47 458,103 470,164l62,328M227,548C271,548 306,579 306,629C306,672 277,703 234,703C190,703 153,671 153,622C153,576 188,548 226,548M431,548C475,548 510,579 510,629C510,672 481,703 438,703C394,703 358,671 358,622C358,576 392,548 430,548z"
   id="glyph49885" />
<glyph
   unicode="ù"
   horiz-adv-x="540"
   d="M368,492l-44,-238C307,169 272,122 235,122C210,122 201,141 201,163C201,182 204,207 209,231l49,261l-163,0l-52,-272C36,183 32,150 32,120C32,40 68,-10 148,-10C202,-10 256,12 304,71l2,-1l-6,-70l142,0C450,47 458,103 470,164l62,328M173,701l103,-151l114,0l-67,151z"
   id="glyph49887" />
<glyph
   unicode="ű"
   horiz-adv-x="540"
   d="M368,492l-44,-238C307,169 272,122 235,122C210,122 201,141 201,163C201,182 204,207 209,231l49,261l-163,0l-52,-272C36,183 32,150 32,120C32,40 68,-10 148,-10C202,-10 256,12 304,71l2,-1l-6,-70l142,0C450,47 458,103 470,164l62,328M254,701l-79,-152l94,0l117,152M431,701l-79,-152l94,0l118,152z"
   id="glyph49889" />
<glyph
   unicode="ū"
   horiz-adv-x="540"
   d="M368,492l-44,-238C307,169 272,122 235,122C210,122 201,141 201,163C201,182 204,207 209,231l49,261l-163,0l-52,-272C36,183 32,150 32,120C32,40 68,-10 148,-10C202,-10 256,12 304,71l2,-1l-6,-70l142,0C450,47 458,103 470,164l62,328M228,667l-18,-85l243,0l18,85z"
   id="glyph49891" />
<glyph
   unicode="_"
   horiz-adv-x="500"
   d="M-54,-75l-10,-50l500,0l10,50z"
   id="glyph49893" />
<glyph
   unicode=" "
   horiz-adv-x="171"
   id="glyph49895" />
<glyph
   unicode="­"
   horiz-adv-x="305"
   d="M45,324l-22,-115l245,0l22,115z"
   id="glyph49897" />
<glyph
   unicode="Ț"
   horiz-adv-x="500"
   d="M118,0l163,0l100,528l155,0l28,146l-471,0l-29,-146l153,0M104,-242C180,-239 277,-198 277,-104C277,-75 263,-51 252,-40l-117,-19C145,-70 154,-86 154,-106C154,-142 118,-164 87,-170z"
   id="glyph49899" />
<glyph
   unicode="ț"
   horiz-adv-x="345"
   d="M129,583l-17,-91l-59,0l-23,-121l59,0l-35,-182C47,156 44,129 44,104C44,36 88,-9 178,-9C210,-9 248,-6 269,2l22,125C277,126 263,126 252,126C224,126 212,141 212,166C212,178 215,200 218,215l31,156l98,0l23,121l-97,0l25,138M35,-242C111,-239 208,-198 208,-103C208,-75 194,-51 183,-40l-117,-19C76,-70 85,-86 85,-106C85,-142 49,-164 18,-170z"
   id="glyph49901" />
<glyph
   unicode="ˉ"
   horiz-adv-x="400"
   d="M157,667l-18,-85l244,0l18,85z"
   id="glyph49903" />
<glyph
   unicode=";"
   horiz-adv-x="277"
   d="M66,-109C131,-20 188,83 227,176l-170,-4C38,83 -3,-20 -49,-119M165,274C227,274 276,320 276,388C276,444 238,485 182,485C119,485 73,428 73,369C73,315 109,274 164,274z"
   id="glyph49905" />
<glyph
   unicode="Δ"
   horiz-adv-x="600"
   d="M-32,0l573,0l15,86l-73,588l-204,0l-296,-588M172,133l111,244C303,424 332,498 346,534l4,0C353,492 356,417 360,370l24,-237z"
   id="glyph49907" />
<glyph
   unicode="Ω"
   horiz-adv-x="674"
   d="M119,126l-115,0l-22,-126l279,0l17,99C241,132 218,194 218,270C218,454 301,551 382,551C449,551 489,504 489,420C489,261 403,149 335,99l-17,-99l281,0l23,126l-108,0l0,5C579,183 664,289 664,433C664,563 574,684 398,684C206,684 49,531 49,329C49,246 84,174 120,131z"
   id="glyph49909" />
<glyph
   unicode="μ"
   horiz-adv-x="541"
   d="M258,492l-163,0l-94,-493C-17,-100 -21,-174 -15,-196l146,0C131,-157 141,-76 152,-19l6,33C170,3 189,-4 213,-4C261,-4 293,27 317,68l3,0C332,18 359,-10 415,-10C440,-10 456,-6 467,-1l33,118C474,118 463,127 471,168l62,324l-164,0l-55,-286C311,194 306,181 302,174C289,148 267,121 241,121C209,121 190,139 203,210z"
   id="glyph49911" />
<glyph
   unicode="ς"
   horiz-adv-x="433"
   d="M285,-153C333,-105 392,10 392,66C392,74 390,78 384,80C343,87 304,94 270,108C222,128 190,159 190,221C190,308 258,373 331,373C356,373 384,368 400,360l42,119C419,491 383,502 328,502C149,502 20,352 20,196C20,72 104,17 152,-2C180,-13 207,-21 224,-25C217,-54 199,-95 185,-118z"
   id="glyph49913" />
<glyph
   unicode="∕"
   horiz-adv-x="389"
   d="M12,-10l488,670l-94,0l-488,-670z"
   id="glyph49915" />
<glyph
   unicode="∙"
   horiz-adv-x="268"
   d="M125,159C186,159 233,203 233,271C233,327 197,366 141,366C80,366 35,312 35,253C35,198 69,159 124,159z"
   id="glyph49917" />
<glyph
   unicode=""
   horiz-adv-x="400"
   d="M301,708C343,708 380,741 380,788C380,828 350,860 307,860C264,860 227,827 227,780C227,737 262,708 300,708z"
   id="glyph49919" />
<glyph
   unicode=""
   horiz-adv-x="400"
   d="M165,847C156,775 194,720 291,720C393,720 439,775 451,847l-90,0C356,823 339,800 300,800C265,800 251,824 252,847z"
   id="glyph49921" />
<glyph
   unicode=""
   horiz-adv-x="400"
   d="M118,2C94,-25 57,-77 57,-129C57,-187 94,-220 160,-220C195,-220 240,-210 272,-185l-12,79C250,-109 232,-114 213,-114C188,-114 173,-100 173,-77C173,-57 186,-28 210,2z"
   id="glyph49923" />
<glyph
   unicode=""
   horiz-adv-x="400"
   d="M122,5l-54,-86C123,-85 139,-100 139,-115C139,-134 120,-140 105,-140C88,-140 68,-135 51,-124l-25,-63C44,-199 71,-208 103,-208C157,-208 233,-185 233,-109C233,-73 208,-49 172,-41l32,46z"
   id="glyph49925" />
<glyph
   unicode=""
   horiz-adv-x="400"
   d="M305,887C230,887 180,844 181,785C183,734 227,698 292,698C366,698 416,737 418,797C418,854 373,887 306,887M301,836C328,836 341,816 341,794C341,769 326,749 297,749C271,749 258,768 258,789C258,814 273,836 300,836z"
   id="glyph49927" />
<glyph
   unicode=""
   horiz-adv-x="400"
   d="M228,717C233,745 245,758 256,758C269,758 279,750 294,740C308,732 328,723 356,723C409,723 447,758 462,853l-77,0C375,819 367,809 352,809C340,809 328,818 314,829C298,838 280,847 252,847C205,847 164,809 149,717z"
   id="glyph49929" />
<glyph
   unicode=""
   horiz-adv-x="400"
   d="M251,840l-123,-130l122,0l50,56l2,0l32,-56l112,0l-77,130z"
   id="glyph49931" />
<glyph
   unicode=""
   horiz-adv-x="300"
   d="M167,-6l11,55C199,50 219,53 240,61l-2,86C221,141 206,138 189,138C159,138 132,154 132,190C132,233 161,262 206,262C226,262 240,260 252,255l32,86C270,347 250,349 235,350l9,52l-72,0l-9,-55C79,329 9,272 9,173C9,138 19,111 35,91C51,71 77,58 106,52l-11,-58z"
   id="glyph49933" />
<glyph
   unicode=""
   horiz-adv-x="328"
   d="M138,-53l11,56C220,12 286,52 286,130C286,180 252,212 205,235C161,256 146,266 146,278C146,288 160,299 187,299C226,299 257,287 273,277l35,85C290,374 259,383 224,385l10,50l-72,0l-10,-52C69,373 21,324 21,261C21,208 67,179 112,155C146,140 160,130 160,115C160,101 142,92 113,92C68,92 36,105 11,123l-36,-87C-6,22 36,4 77,2l-11,-55z"
   id="glyph49935" />
<glyph
   unicode=""
   horiz-adv-x="194"
   d="M12,228l-15,-79l159,0l15,79z"
   id="glyph49937" />
<glyph
   unicode=""
   horiz-adv-x="199"
   d="M134,428C66,357 16,243 16,102C16,47 30,-12 48,-54l80,0C110,1 106,49 106,108C106,234 157,352 216,428z"
   id="glyph49939" />
<glyph
   unicode=""
   horiz-adv-x="199"
   d="M39,-54C106,19 156,133 156,273C156,327 143,387 125,428l-81,0C62,373 65,326 65,267C65,140 13,23 -45,-54z"
   id="glyph49941" />
<glyph
   unicode=""
   horiz-adv-x="300"
   d="M220,259l11,55C252,315 272,318 293,326l-2,86C274,406 259,403 242,403C212,403 185,419 185,455C185,498 214,527 259,527C279,527 293,525 305,520l32,86C323,612 303,614 288,615l9,53l-72,0l-9,-56C132,594 62,537 62,438C62,403 72,376 88,356C104,336 130,323 159,317l-11,-58z"
   id="glyph49943" />
<glyph
   unicode=""
   horiz-adv-x="328"
   d="M191,212l11,56C272,277 338,317 338,395C338,445 304,477 257,500C213,521 199,531 199,543C199,553 212,564 239,564C278,564 309,552 325,542l35,85C342,639 311,648 276,650l10,50l-72,0l-9,-52C122,638 74,589 74,526C74,473 120,444 165,420C199,405 212,395 212,380C212,366 195,357 166,357C121,357 89,370 64,388l-36,-87C47,287 89,269 130,267l-11,-55z"
   id="glyph49945" />
<glyph
   unicode=""
   horiz-adv-x="194"
   d="M64,492l-15,-79l159,0l15,79z"
   id="glyph49947" />
<glyph
   unicode=""
   horiz-adv-x="199"
   d="M187,693C119,622 69,508 69,367C69,312 83,253 101,211l80,0C163,266 159,314 159,373C159,499 210,617 269,693z"
   id="glyph49949" />
<glyph
   unicode=""
   horiz-adv-x="199"
   d="M91,211C158,284 208,398 208,538C208,592 195,652 177,693l-81,0C114,638 117,591 117,532C117,405 65,288 7,211z"
   id="glyph49951" />
<glyph
   unicode=""
   horiz-adv-x="722"
   d="M424,335C416,283 386,245 358,245C332,245 319,266 319,300C319,377 364,436 414,436C423,436 431,435 438,433M517,85C477,64 424,53 377,53C237,53 135,141 135,311C135,501 265,622 409,622C560,622 635,521 635,397C635,277 587,226 548,227C521,228 514,254 523,311l29,183C528,508 477,519 434,519C294,519 209,411 209,287C209,206 252,157 316,157C366,157 409,186 436,234l2,0C444,184 474,157 526,157C635,157 710,251 710,401C710,559 596,684 420,684C201,684 58,502 58,303C58,105 201,-10 356,-10C424,-10 475,-1 535,26z"
   id="glyph49953" />
<glyph
   unicode=""
   horiz-adv-x="400"
   d="M62,-242C138,-239 235,-198 235,-103C235,-75 221,-51 210,-40l-117,-19C103,-70 112,-86 112,-106C112,-142 76,-164 45,-170z"
   id="glyph49955" />
<glyph
   unicode=""
   horiz-adv-x="527"
   d="M196,263C196,267 197,271 197,275C209,378 246,528 317,528C339,528 353,512 357,489M362,383C362,379 361,375 361,372C347,267 312,122 240,122C219,122 205,138 202,160M559,638l-56,43l-45,-63C429,644 390,660 335,660C137,660 37,430 37,219C37,172 45,126 62,87l-53,-64l51,-46l42,55C132,6 171,-10 224,-10C430,-10 521,236 521,437C521,480 514,524 498,562z"
   id="glyph49957" />
<glyph
   unicode=""
   horiz-adv-x="527"
   d="M225,-10C430,-10 521,236 521,437C521,546 479,660 335,660C138,660 37,430 37,219C37,98 86,-10 224,-10M243,122C204,122 197,170 197,211C197,279 234,528 317,528C353,528 361,484 361,444C361,379 326,122 244,122z"
   id="glyph49959" />
<glyph
   unicode=""
   horiz-adv-x="484"
   d="M404,0l26,140l-207,0l0,2l60,46C377,264 476,350 476,482C476,578 412,660 273,660C201,660 131,639 80,612l26,-120C138,511 178,523 230,523C281,523 310,496 310,454C310,384 231,311 122,216l-134,-109l-20,-107z"
   id="glyph49961" />
<glyph
   unicode=""
   horiz-adv-x="467"
   d="M-25,28C3,7 72,-10 151,-10C295,-10 431,68 431,205C431,277 388,328 327,345l1,2C404,368 464,427 464,506C464,605 375,660 259,660C196,660 129,644 88,622l13,-126C127,510 170,522 219,522C269,522 291,501 291,475C291,424 225,404 163,404l-17,0l-24,-125l21,0C221,279 263,254 263,204C263,156 217,128 151,128C94,128 49,146 22,158z"
   id="glyph49963" />
<glyph
   unicode=""
   horiz-adv-x="527"
   d="M387,0l29,149l69,0l23,125l-69,0l71,376l-192,0l-289,-391l-20,-110l258,0l-29,-149M183,274l1,2l76,110C288,426 314,468 342,512l4,0C335,469 322,422 313,379l-23,-105z"
   id="glyph49965" />
<glyph
   unicode=""
   horiz-adv-x="484"
   d="M500,650l-345,0l-91,-347C88,305 108,307 135,307C242,307 282,274 282,218C282,156 211,128 150,128C101,128 56,141 30,155l-40,-132C15,4 74,-10 148,-10C316,-10 450,87 450,246C450,305 428,352 390,384C350,419 290,430 259,430C252,430 247,430 240,429l22,81l209,0z"
   id="glyph49967" />
<glyph
   unicode=""
   horiz-adv-x="529"
   d="M505,658C492,659 478,660 454,658C357,653 265,621 196,566C109,498 36,372 36,215C36,96 99,-10 245,-10C396,-10 502,114 502,263C502,358 440,435 348,436C303,436 265,422 235,398l-3,1C262,459 325,511 430,522C450,524 464,525 480,524M252,113C213,113 193,151 193,192C193,203 193,216 196,237C197,245 200,256 204,266C219,293 244,316 275,316C312,316 335,287 335,246C335,193 311,113 253,113z"
   id="glyph49969" />
<glyph
   unicode=""
   horiz-adv-x="463"
   d="M91,650l-26,-140l253,0l0,-2C210,339 102,170 -6,0l176,0C280,181 390,362 500,541l21,109z"
   id="glyph49971" />
<glyph
   unicode=""
   horiz-adv-x="527"
   d="M325,660C200,660 86,586 86,463C86,418 104,376 145,342l-1,-2C76,309 14,249 14,158C14,61 91,-9 228,-10C352,-10 487,62 487,205C487,257 459,311 406,346l1,2C477,382 518,435 518,500C518,603 436,660 326,660M244,104C203,104 182,135 182,176C182,227 217,265 254,280C289,265 319,238 319,192C319,137 281,104 245,104M310,546C342,546 364,525 364,488C364,447 335,413 300,397C268,411 241,433 241,470C241,510 272,546 309,546z"
   id="glyph49973" />
<glyph
   unicode=""
   horiz-adv-x="529"
   d="M43,-8C65,-9 80,-10 114,-9C203,-5 294,24 357,75C444,144 522,272 524,438C524,557 464,660 317,660C172,660 56,539 56,395C56,294 123,225 221,225C258,225 299,236 325,259l2,-1C308,220 276,185 233,159C201,141 162,130 124,128C98,126 83,126 65,128M304,537C343,537 362,506 362,465C362,450 361,427 357,413C352,391 347,380 342,372C333,361 310,342 279,342C246,342 222,370 222,414C222,468 256,537 303,537z"
   id="glyph49975" />
<glyph
   unicode=""
   horiz-adv-x="845"
   d="M237,623C113,623 28,506 28,374C28,276 89,222 174,222C286,222 379,328 379,476C379,559 330,623 238,623M224,533C250,533 260,512 260,484C260,445 238,312 183,312C161,312 147,333 147,366C147,415 171,533 223,533M240,-10l453,632l-91,0l-453,-632M674,392C549,392 464,275 464,144C464,45 525,-9 610,-9C723,-9 816,97 816,246C816,328 767,392 675,392M661,302C687,302 697,281 697,254C697,214 675,81 620,81C597,81 583,102 583,136C583,185 608,302 660,302z"
   id="glyph49977" />
<glyph
   unicode=""
   horiz-adv-x="533"
   d="M225,-10C405,-10 503,148 503,305C503,406 436,502 304,502C125,502 26,339 26,194C26,79 97,-10 224,-10M243,119C204,119 188,146 188,194C188,258 220,373 287,373C325,373 341,342 341,303C341,233 310,119 244,119z"
   id="glyph49979" />
<glyph
   unicode=""
   horiz-adv-x="533"
   d="M444,492l-136,0l-219,-74l-3,-130l170,56l2,0l-65,-344l159,0z"
   id="glyph49981" />
<glyph
   unicode=""
   horiz-adv-x="533"
   d="M453,134l-76,0C348,134 315,131 279,125l0,4l38,23C400,207 458,269 458,353C458,447 387,504 293,504C208,504 140,474 92,440l31,-103C149,352 190,369 223,369C265,369 287,350 287,311C287,266 217,209 114,142l-76,-48l-18,-94l407,0z"
   id="glyph49983" />
<glyph
   unicode=""
   horiz-adv-x="533"
   d="M19,-109C50,-122 99,-130 158,-130C314,-130 438,-53 438,75C438,151 385,197 326,211l0,3C391,233 461,278 463,366C463,444 403,502 291,502C223,502 155,479 107,448l21,-109C157,354 199,370 239,370C277,370 299,354 299,328C298,276 211,260 175,258C166,257 158,257 149,256l-26,-120C137,136 151,136 164,136C217,136 268,116 268,73C268,25 213,2 153,2C116,2 74,9 54,15z"
   id="glyph49985" />
<glyph
   unicode=""
   horiz-adv-x="533"
   d="M398,29l69,0l24,122l-69,0l64,341l-191,0l-282,-355l-21,-108l259,0l-30,-155l148,0M274,151l-106,0l-1,5l83,110C271,295 297,335 314,366l4,0C309,331 299,285 293,250z"
   id="glyph49987" />
<glyph
   unicode=""
   horiz-adv-x="533"
   d="M24,-108C50,-120 103,-130 159,-130C320,-130 439,-47 439,103C439,149 421,189 392,217C358,249 309,269 250,275l27,78l172,0l41,139l-304,0l-106,-323C146,169 223,159 252,131C264,119 270,100 270,84C270,33 221,1 149,1C113,1 77,7 56,14z"
   id="glyph49989" />
<glyph
   unicode=""
   horiz-adv-x="533"
   d="M246,115C218,115 196,137 196,185C196,223 206,256 220,273C231,287 245,300 270,300C300,300 326,277 326,232C326,174 293,115 247,115M486,622C342,620 227,561 152,485C65,398 36,281 36,203C36,64 121,-10 236,-10C381,-10 491,105 491,249C491,351 432,411 354,411C308,411 270,392 246,373l-2,1C252,389 263,405 277,419C324,467 407,493 495,499z"
   id="glyph49991" />
<glyph
   unicode=""
   horiz-adv-x="533"
   d="M512,492l-409,0l-24,-142l234,0l0,-2C236,208 121,42 15,-96l149,-34C286,30 446,284 494,390z"
   id="glyph49993" />
<glyph
   unicode=""
   horiz-adv-x="533"
   d="M314,622C194,622 85,553 85,438C85,390 113,348 151,322l0,-3C75,286 19,234 19,155C19,61 98,-9 236,-10C368,-10 492,69 492,194C492,251 451,299 408,326l0,3C465,357 515,397 515,464C515,555 438,622 315,622M307,510C339,510 361,487 361,454C361,422 336,393 307,380C275,393 238,416 238,452C238,482 264,510 306,510M252,108C217,108 188,133 188,175C188,210 215,244 257,263C292,245 322,217 322,184C322,144 292,108 253,108z"
   id="glyph49995" />
<glyph
   unicode=""
   horiz-adv-x="533"
   d="M257,198C226,198 204,223 204,265C204,325 240,379 281,379C316,379 335,351 335,309C335,273 322,235 305,219C291,206 275,198 258,198M49,-123C63,-124 85,-123 112,-121C353,-93 495,84 495,287C495,414 417,506 296,506C147,506 39,388 39,254C39,160 96,89 191,89C231,89 268,105 288,123l2,-1C267,70 202,21 113,8C85,3 60,2 42,1z"
   id="glyph49997" />
<glyph
   unicode=""
   horiz-adv-x="533"
   d="M447,136C423,126 386,120 358,120C319,120 280,136 268,173l146,0l16,78l-167,0C264,266 266,277 269,293l171,0l17,77l-160,0C317,404 361,427 415,427C446,427 473,420 488,414l45,120C512,543 474,555 418,555C285,555 176,479 135,370l-52,0l-19,-77l48,0C109,280 107,266 105,251l-49,0l-18,-78l65,0C114,61 191,-10 313,-10C366,-10 419,0 447,12z"
   id="glyph49999" />
<glyph
   unicode=""
   horiz-adv-x="533"
   d="M522,605C505,615 477,622 444,622C282,622 221,480 202,396l-7,-29l-80,0l-16,-122l68,0l-30,-131C112,11 89,-5 60,-5C44,-5 29,-1 17,4l-34,-118C0,-124 29,-133 72,-134C205,-134 256,-35 282,73l40,172l104,0l16,122l-91,0l11,48C375,467 402,493 439,493C455,493 470,490 482,485z"
   id="glyph50001" />
<glyph
   unicode=""
   horiz-adv-x="533"
   d="M220,259l33,104l80,0l-32,-104M138,0l50,163l81,0l-52,-163l96,0l51,163l95,0l17,96l-80,0l32,104l92,0l17,96l-79,0l52,163l-95,0l-51,-163l-82,0l52,163l-94,0l-52,-163l-95,0l-17,-96l83,0l-34,-104l-94,0l-17,-96l80,0l-52,-163z"
   id="glyph50003" />
<glyph
   unicode=""
   horiz-adv-x="533"
   d="M499,555C480,567 442,577 396,577C252,577 163,478 146,367C144,352 143,339 143,326l-64,0l-15,-92l80,0C139,166 96,117 32,93l-15,-93l423,0l22,135l-226,0l0,2C267,160 284,193 293,234l113,0l15,92l-125,0C296,338 297,351 299,364C306,409 335,442 389,442C415,442 439,437 455,428z"
   id="glyph50005" />
<glyph
   unicode=""
   horiz-adv-x="533"
   d="M290,0l19,101l135,0l15,79l-134,0l8,47l135,0l15,79l-99,0l177,239l-165,0l-60,-117C316,392 297,357 280,324l-1,0C274,358 269,389 262,428l-19,117l-166,0l84,-239l-99,0l-15,-79l133,0l-8,-47l-134,0l-15,-79l134,0l-20,-101z"
   id="glyph50007" />
<glyph
   unicode=""
   horiz-adv-x="533"
   d="M251,-84l18,89C360,22 451,82 451,183C451,234 414,274 337,302C279,325 265,332 265,349C265,369 299,379 331,379C374,379 414,365 435,353l50,111C460,478 418,490 370,493l16,86l-96,0l-18,-93C184,468 99,414 99,317C99,266 131,231 210,202C269,177 280,167 280,153C280,127 240,119 208,119C167,119 113,136 86,154l-51,-115C65,19 115,2 171,-1l-16,-83z"
   id="glyph50009" />
<glyph
   unicode=""
   horiz-adv-x="533"
   d="M400,172C376,164 339,156 304,156C255,156 217,179 217,230C217,298 264,355 344,355C371,355 405,346 420,339l41,113C441,460 401,468 376,470l13,68l-92,0l-14,-73C149,439 62,330 62,203C62,117 119,58 203,43l-14,-75l92,0l14,72C327,41 370,49 394,59z"
   id="glyph50011" />
<glyph
   unicode=""
   horiz-adv-x="356"
   d="M134,-5C259,-5 333,115 333,256C333,327 292,395 200,395C76,395 0,276 0,139C0,59 45,-5 133,-5M147,90C128,90 122,111 122,140C122,170 141,300 186,300C202,300 211,283 211,249C211,192 189,90 148,90z"
   id="glyph50013" />
<glyph
   unicode=""
   horiz-adv-x="273"
   d="M176,0l74,390l-111,0l-124,-48l9,-88l77,31l1,0l-54,-285z"
   id="glyph50015" />
<glyph
   unicode=""
   horiz-adv-x="331"
   d="M258,0l19,97l-123,0l0,3l20,14C233,157 307,211 307,291C307,354 255,395 171,395C117,395 67,378 33,355l14,-83C71,286 100,296 128,296C158,296 172,282 172,263C172,224 120,181 52,129l-77,-64l-13,-65z"
   id="glyph50017" />
<glyph
   unicode=""
   horiz-adv-x="324"
   d="M46,283C65,296 98,307 127,307C155,307 168,296 168,279C168,250 125,242 87,242l-14,0l-14,-75l17,0C123,167 152,150 152,125C152,99 123,83 88,83C57,83 21,95 2,108l-36,-84C-7,6 43,-5 95,-5C198,-5 284,42 284,125C284,169 246,198 209,206l0,2C259,222 301,253 301,305C301,354 246,395 169,395C113,395 68,381 38,363z"
   id="glyph50019" />
<glyph
   unicode=""
   horiz-adv-x="353"
   d="M250,0l17,84l44,0l17,85l-45,0l42,224l-144,0l-189,-235l-14,-74l173,0l-16,-84M167,169l-61,0l0,1l42,58C160,245 178,271 194,296l3,0C190,271 182,242 177,217z"
   id="glyph50021" />
<glyph
   unicode=""
   horiz-adv-x="326"
   d="M308,390l-234,0l-56,-215C33,177 48,178 67,178C126,178 155,164 155,136C155,104 122,91 80,91C46,91 16,99 1,106l-28,-93C-7,3 29,-5 79,-5C197,-5 287,53 287,153C287,191 269,221 232,239C210,255 180,260 162,260C156,260 149,260 141,259l8,32l139,0z"
   id="glyph50023" />
<glyph
   unicode=""
   horiz-adv-x="345"
   d="M312,393C297,394 276,394 257,392C202,388 150,371 109,345C49,306 -2,233 -2,136C-2,61 51,-5 146,-5C243,-5 317,63 317,158C317,213 283,264 214,265C191,265 165,257 148,244l-2,1C160,269 193,295 254,300C268,302 282,301 294,299M151,80C129,80 117,99 117,117C117,125 118,137 122,152C124,156 125,159 128,164C134,174 147,185 161,185C184,185 196,169 196,150C196,106 176,80 152,80z"
   id="glyph50025" />
<glyph
   unicode=""
   horiz-adv-x="306"
   d="M33,390l-19,-99l154,0l0,-1C132,238 26,80 -29,0l131,0C148,74 265,256 302,314l15,76z"
   id="glyph50027" />
<glyph
   unicode=""
   horiz-adv-x="358"
   d="M200,395C115,395 38,352 38,274C38,246 56,221 82,204l-1,-1C38,185 -4,149 -4,97C-4,38 51,-5 141,-5C221,-5 317,35 317,126C317,157 297,188 258,209l1,1C300,228 333,259 333,297C333,364 270,395 201,395M153,76C133,76 120,92 120,112C120,140 137,155 155,163C176,155 191,141 191,119C191,93 173,76 154,76M187,317C207,317 220,306 220,286C220,266 208,250 190,243C165,254 155,266 155,283C155,301 168,317 186,317z"
   id="glyph50029" />
<glyph
   unicode=""
   horiz-adv-x="348"
   d="M5,-4C23,-5 41,-7 56,-7C115,-5 178,11 222,45C277,87 326,157 326,255C326,332 278,396 183,396C90,396 9,328 9,238C9,169 60,132 120,132C142,132 167,137 183,148l1,-1C176,132 156,112 129,101C111,93 91,90 71,89C52,88 32,90 21,91M173,309C195,309 207,292 207,272C207,263 206,254 205,248C203,235 199,225 195,221C189,214 181,209 165,209C146,209 131,223 131,246C131,279 148,309 172,309z"
   id="glyph50031" />
<glyph
   unicode=""
   horiz-adv-x="177"
   d="M19,-63C67,-1 103,59 135,127l-120,-6C-3,59 -30,-2 -63,-70z"
   id="glyph50033" />
<glyph
   unicode=""
   horiz-adv-x="177"
   d="M53,-6C96,-6 128,24 128,70C128,108 102,134 65,134C22,134 -9,98 -9,57C-9,20 15,-6 52,-6z"
   id="glyph50035" />
<glyph
   unicode=""
   horiz-adv-x="356"
   d="M187,260C311,260 385,380 385,521C385,592 344,660 252,660C129,660 53,541 53,404C53,324 98,260 186,260M200,355C181,355 175,376 175,405C175,435 194,565 238,565C254,565 263,548 263,514C263,457 241,355 201,355z"
   id="glyph50037" />
<glyph
   unicode=""
   horiz-adv-x="273"
   d="M229,265l74,390l-111,0l-124,-48l9,-88l77,31l1,0l-54,-285z"
   id="glyph50039" />
<glyph
   unicode=""
   horiz-adv-x="331"
   d="M310,265l19,97l-123,0l0,3l20,14C285,422 359,476 359,556C359,619 307,660 223,660C169,660 119,643 85,620l14,-83C123,551 152,561 180,561C210,561 224,547 224,528C224,489 172,446 104,394l-77,-64l-13,-65z"
   id="glyph50041" />
<glyph
   unicode=""
   horiz-adv-x="324"
   d="M98,548C118,561 151,572 180,572C208,572 221,561 221,544C221,515 178,507 140,507l-14,0l-14,-75l16,0C175,432 204,415 204,390C204,364 175,348 140,348C109,348 73,360 54,373l-36,-84C45,271 95,260 147,260C250,260 336,307 336,390C336,434 298,463 261,471l0,2C312,487 354,518 354,570C354,619 299,660 222,660C166,660 121,646 91,628z"
   id="glyph50043" />
<glyph
   unicode=""
   horiz-adv-x="353"
   d="M303,265l17,84l44,0l17,85l-45,0l42,224l-144,0l-189,-235l-14,-74l173,0l-16,-84M220,434l-61,0l0,1l42,58C213,510 231,536 247,561l3,0C243,536 235,507 230,482z"
   id="glyph50045" />
</font>
</defs>
</svg>
